Subcategories

Odessey & Oracle - Speculatio (2017)

Posted By: aasana
Odessey & Oracle - Speculatio (2017)

Odessey and Oracle - Speculatio (2017)
EAC Rip | FLAC (tracks+.cue+.log) | 39:07 min | 235 MB
French, Indie, Pop | Label: Bongo Joe

The second full-length by the psychedelic band from Lyon, France, that named itself after the classic Zombies-LP. Expect colourful retro-futuristic music with influences from a.o. Brian Wilson, Caetano Veloso, White Noise, J.S. Bach, Moondog,
Robert Wyatt… The French lyrics, both surreal and utopian, witness the contradictions of our times and invite the listener to imagine a revolutionary love.

Tracklist:
01. Odessey and Oracle - Les deesses
02. Odessey and Oracle - Epiphanie
03. Odessey and Oracle - Interlude 1
04. Odessey and Oracle - L'horizon tombe
05. Odessey and Oracle - J'ai vu un croco
06. Odessey and Oracle - Interlude 2
07. Odessey and Oracle - Grand autodafe
08. Odessey and Oracle - La princesse et le lion
09. Odessey and Oracle - Sunflowers
10. Odessey and Oracle - Le labyrinthe
11. Odessey and Oracle - Les nouveaux dieux

Exact Audio Copy V1.3 from 2. September 2016

EAC extraction logfile from 13. March 2018, 20:58

Odessey & Oracle / Speculatio

Used drive : HL-DT-STDVDRAM GP30NB20 Adapter: 1 ID: 1

Read mode : Secure
Utilize accurate stream : Yes
Defeat audio cache : Yes
Make use of C2 pointers : No

Read offset correction : 6
Overread into Lead-In and Lead-Out : No
Fill up missing offset samples with silence : Yes
Delete leading and trailing silent blocks : No
Null samples used in CRC calculations : Yes
Used interface : Native Win32 interface for Win NT & 2000
Gap handling : Appended to previous track

Used output format : User Defined Encoder
Selected bitrate : 1024 kBit/s
Quality : High
Add ID3 tag : No
Command line compressor : C:\Program Files (x86)\Exact Audio Copy\Flac\flac.exe
Additional command line options : -8 -e -p -V -T "ARTIST=%artist%" -T "TITLE=%title%" -T "ALBUM=%albumtitle%" -T "DATE=%year%" -T "TRACKNUMBER=%tracknr%" -T "GENRE=%genre%" -T "PERFORMER=%albuminterpret%" -T "COMPOSER=%composer%" %haslyrics%–tag-from-file=LYRICS="%lyricsfile%"%haslyrics% -T "ALBUMARTIST=%albumartist%" -T "DISCNUMBER=%cdnumber%" -T "TOTALDISCS=%totalcds%" -T "TOTALTRACKS=%numtracks%" -T "COMMENT=%comment%" %source% -o %dest%


TOC of the extracted CD

Track | Start | Length | Start sector | End sector
––––––––––––––––––––––––––––-
1 | 0:00.00 | 5:30.32 | 0 | 24781
2 | 5:30.32 | 4:39.60 | 24782 | 45766
3 | 10:10.17 | 0:18.07 | 45767 | 47123
4 | 10:28.24 | 2:36.13 | 47124 | 58836
5 | 13:04.37 | 4:43.39 | 58837 | 80100
6 | 17:48.01 | 0:32.66 | 80101 | 82566
7 | 18:20.67 | 5:16.06 | 82567 | 106272
8 | 23:36.73 | 4:37.05 | 106273 | 127052
9 | 28:14.03 | 3:41.30 | 127053 | 143657
10 | 31:55.33 | 3:09.12 | 143658 | 157844
11 | 35:04.45 | 4:02.62 | 157845 | 176056


Track 1

Filename C:\Users\PC\Desktop\Odessey & Oracle-Speculatio-CD-FLAC-2017\01 Les Déesses.wav

Pre-gap length 0:00:02.00

Peak level 97.4 %
Extraction speed 1.2 X
Track quality 100.0 %
Test CRC 482BE8FE
Copy CRC 482BE8FE
Track not present in AccurateRip database
Copy OK

Track 2

Filename C:\Users\PC\Desktop\Odessey & Oracle-Speculatio-CD-FLAC-2017\02 Epiphanie.wav

Pre-gap length 0:00:00.73

Peak level 99.5 %
Extraction speed 1.3 X
Track quality 100.0 %
Test CRC 36280892
Copy CRC 36280892
Track not present in AccurateRip database
Copy OK

Track 3

Filename C:\Users\PC\Desktop\Odessey & Oracle-Speculatio-CD-FLAC-2017\03 Interlude 1.wav

Pre-gap length 0:00:00.98

Peak level 77.9 %
Extraction speed 0.5 X
Track quality 100.0 %
Test CRC 4BD7015B
Copy CRC 4BD7015B
Track not present in AccurateRip database
Copy OK

Track 4

Filename C:\Users\PC\Desktop\Odessey & Oracle-Speculatio-CD-FLAC-2017\04 L'Horizon Tombe.wav

Pre-gap length 0:00:00.17

Peak level 99.5 %
Extraction speed 1.3 X
Track quality 100.0 %
Test CRC F71A91B4
Copy CRC F71A91B4
Track not present in AccurateRip database
Copy OK

Track 5

Filename C:\Users\PC\Desktop\Odessey & Oracle-Speculatio-CD-FLAC-2017\05 J'ai Vu Un Croco.wav

Pre-gap length 0:00:00.74

Peak level 99.5 %
Extraction speed 1.4 X
Track quality 99.9 %
Test CRC 00584DC4
Copy CRC 00584DC4
Track not present in AccurateRip database
Copy OK

Track 6

Filename C:\Users\PC\Desktop\Odessey & Oracle-Speculatio-CD-FLAC-2017\06 Interlude 2.wav

Pre-gap length 0:00:00.98

Peak level 92.0 %
Extraction speed 0.5 X
Track quality 99.6 %
Test CRC 4B9012BB
Copy CRC 4B9012BB
Track not present in AccurateRip database
Copy OK

Track 7

Filename C:\Users\PC\Desktop\Odessey & Oracle-Speculatio-CD-FLAC-2017\07 Grand Autodafé.wav

Pre-gap length 0:00:00.49

Peak level 98.8 %
Extraction speed 1.5 X
Track quality 99.9 %
Test CRC 5C18585B
Copy CRC 5C18585B
Track not present in AccurateRip database
Copy OK

Track 8

Filename C:\Users\PC\Desktop\Odessey & Oracle-Speculatio-CD-FLAC-2017\08 La Princesse Et Le Lion.wav

Pre-gap length 0:00:01.42

Peak level 98.8 %
Extraction speed 1.7 X
Track quality 100.0 %
Test CRC CCA55AC4
Copy CRC CCA55AC4
Track not present in AccurateRip database
Copy OK

Track 9

Filename C:\Users\PC\Desktop\Odessey & Oracle-Speculatio-CD-FLAC-2017\09 Sunflowers.wav

Pre-gap length 0:00:00.98

Peak level 99.5 %
Extraction speed 1.6 X
Track quality 99.9 %
Test CRC DE8FD133
Copy CRC DE8FD133
Track not present in AccurateRip database
Copy OK

Track 10

Filename C:\Users\PC\Desktop\Odessey & Oracle-Speculatio-CD-FLAC-2017\10 Le Labyrinthe.wav

Pre-gap length 0:00:01.38

Peak level 99.9 %
Extraction speed 1.8 X
Track quality 100.0 %
Test CRC 08DC16CE
Copy CRC 08DC16CE
Track not present in AccurateRip database
Copy OK

Track 11

Filename C:\Users\PC\Desktop\Odessey & Oracle-Speculatio-CD-FLAC-2017\11 Les Nouveaux Dieux.wav

Pre-gap length 0:00:00.90

Peak level 99.5 %
Extraction speed 1.9 X
Track quality 100.0 %
Test CRC 8CB5D0B2
Copy CRC 8CB5D0B2
Track not present in AccurateRip database
Copy OK


None of the tracks are present in the AccurateRip database

No errors occurred

End of status report

–– CUETools DB Plugin V2.1.6

[CTDB TOCID: tEZ4KBqOU38rwriHHpqkkAnLcsk-] found
Submit result: tEZ4KBqOU38rwriHHpqkkAnLcsk- has been confirmed
Track | CTDB Status
1 | (3/3) Accurately ripped
2 | (3/3) Accurately ripped
3 | (3/3) Accurately ripped
4 | (3/3) Accurately ripped
5 | (3/3) Accurately ripped
6 | (3/3) Accurately ripped
7 | (3/3) Accurately ripped
8 | (3/3) Accurately ripped
9 | (3/3) Accurately ripped
10 | (3/3) Accurately ripped
11 | (3/3) Accurately ripped


==== Log checksum B9EB000BA421C74610C17F8C782797971BE2B27322E0024C214835A46E090B98 ====