Subcategories

Odin - Live At The Maxim (2007)

Posted By: Domestos
Odin - Live At The Maxim (2007)

Odin - Live At The Maxim (2007)
EAC Rip | FLAC (tracks+.cue, log) ~ 436.25 Mb | 1:10:05 | Covers
Krautrock, Psychedelic, Heavy Prog, Jam Band | Country: UK | Label: Long Hair - LHC00057

This live concert from September 1971 is an impressive documentation of ODIN during the bands identification process. ODIN, well-known because of their album on famous label Vertigos recorded 1972, did during their lifetime a lot of concerts. Founded in summer 1971, ODIN played, beside their own material, titles of their favorites, for example Frank Zappa, King Crimson, Neil Young and others. On this CD you have Neil Young titles such as Ohioand Cimarron Girl, King Crimson's classic the 21th Century Schizoid Man, Zappa's Oh Noand Peaches En Regaliaas special ODIN versions. Also, ODIN's Silver Dollar, a 20-minutes long epic (not on the album and not on the CD "SWF SESSION 1973"). A breath-taking concert by top-flight soloists with an insatiable musical appetite, remarkable power and instrumental virtuosity. Digitally remastered from original tape. Booklet comes with personal liner notes by bandleader Jeff Beer and a lot of rare and previous unseen photos, ca. 70 minutes. A must for all lovers of the genre!

===
Discogs | Amazon
===


Track List:
1. Oh No (Frank Zappa) - 6:34
2. Man Of Reason (Enrico Rosenbaum) - 3:03
3. Ohio (Neil Young) - 4:09
4. Silver Dollar (Odin) - 18:55
5. My Guitar Wants To Kill Your Mama (Frank Zappa) - 4:46
6. Gemini (Steve Hammond (2)) - 8:03
7. Cinnamon Girl (Neil Young) - 3:31
8. Little House (Frank Zappa) - 4:30
9. Peaches En Regalia (Frank Zappa) - 6:07
10. 21th Century Schizoid Man (Greg Lake, Ian McDonald, Michael Giles, Peter Sinfield, Robert Fripp) - 10:08

Drums – Stuart Fordham
Vocals, Bass – Ray Brown
Vocals, Guitar – Rob Terstall
Vocals, Organ – Jeff Beer

Live at the Maxim, Schweinfurt, Germany, September 1971

Odin - Live At The Maxim (2007)

Exact Audio Copy V1.0 beta 6 from 9. April 2015

EAC extraction logfile from 10. January 2019, 18:23

Odin / Live At The Maxim

Used drive : hp CDDVDW SN-208FB Adapter: 1 ID: 0

Read mode : Secure
Utilize accurate stream : Yes
Defeat audio cache : Yes
Make use of C2 pointers : No

Read offset correction : 6
Overread into Lead-In and Lead-Out : No
Fill up missing offset samples with silence : Yes
Delete leading and trailing silent blocks : No
Null samples used in CRC calculations : Yes
Used interface : Native Win32 interface for Win NT & 2000
Gap handling : Appended to previous track

Used output format : User Defined Encoder
Selected bitrate : 1024 kBit/s
Quality : High
Add ID3 tag : No
Command line compressor : C:\Program Files (x86)\Exact Audio Copy\Flac\flac.exe
Additional command line options : -8 -V -T "ARTIST=%artist%" -T "TITLE=%title%" -T "ALBUM=%albumtitle%" -T "DATE=%year%" -T "TRACKNUMBER=%tracknr%" -T "GENRE=%genre%" -T "PERFORMER=%albuminterpret%" -T "COMPOSER=%composer%" %haslyrics%–tag-from-file=LYRICS="%lyricsfile%"%haslyrics% -T "ALBUMARTIST=%albumartist%" -T "DISCNUMBER=%cdnumber%" -T "TOTALDISCS=%totalcds%" -T "TOTALTRACKS=%numtracks%" -T "COMMENT=%comment%" %source% -o %dest%


TOC of the extracted CD

Track | Start | Length | Start sector | End sector
––––––––––––––––––––––––––––-
1 | 0:00.00 | 6:35.56 | 0 | 29680
2 | 6:35.56 | 3:04.63 | 29681 | 43543
3 | 9:40.44 | 4:11.38 | 43544 | 62406
4 | 13:52.07 | 18:57.30 | 62407 | 147711
5 | 32:49.37 | 4:48.37 | 147712 | 169348
6 | 37:37.74 | 8:04.56 | 169349 | 205704
7 | 45:42.55 | 3:32.58 | 205705 | 221662
8 | 49:15.38 | 4:32.44 | 221663 | 242106
9 | 53:48.07 | 6:09.14 | 242107 | 269795
10 | 59:57.21 | 10:08.45 | 269796 | 315440


Track 1

Filename C:\Users\Windows\Desktop\17657\Users\Nelson Souto\Documents\Odin - Live At The Maxim (1971)\01 - Oh No.wav

Pre-gap length 0:00:02.00

Peak level 94.2 %
Extraction speed 2.2 X
Track quality 99.9 %
Test CRC CAD885C6
Copy CRC CAD885C6
Track not present in AccurateRip database
Copy OK

Track 2

Filename C:\Users\Windows\Desktop\17657\Users\Nelson Souto\Documents\Odin - Live At The Maxim (1971)\02 - Man Of Reason.wav

Pre-gap length 0:00:01.98

Peak level 94.2 %
Extraction speed 2.6 X
Track quality 100.0 %
Test CRC 37928207
Copy CRC 37928207
Track not present in AccurateRip database
Copy OK

Track 3

Filename C:\Users\Windows\Desktop\17657\Users\Nelson Souto\Documents\Odin - Live At The Maxim (1971)\03 - Ohio.wav

Pre-gap length 0:00:01.98

Peak level 94.2 %
Extraction speed 2.9 X
Track quality 100.0 %
Test CRC 37296E3B
Copy CRC 37296E3B
Track not present in AccurateRip database
Copy OK

Track 4

Filename C:\Users\Windows\Desktop\17657\Users\Nelson Souto\Documents\Odin - Live At The Maxim (1971)\04 - Silver Dollar.wav

Pre-gap length 0:00:01.98

Peak level 94.2 %
Extraction speed 3.4 X
Track quality 99.9 %
Test CRC 8854CDB8
Copy CRC 8854CDB8
Track not present in AccurateRip database
Copy OK

Track 5

Filename C:\Users\Windows\Desktop\17657\Users\Nelson Souto\Documents\Odin - Live At The Maxim (1971)\05 - My Guitar Wants To Kill Your Mama.wav

Pre-gap length 0:00:01.98

Peak level 94.2 %
Extraction speed 3.0 X
Track quality 99.9 %
Test CRC 3B7B8E90
Copy CRC 3B7B8E90
Track not present in AccurateRip database
Copy OK

Track 6

Filename C:\Users\Windows\Desktop\17657\Users\Nelson Souto\Documents\Odin - Live At The Maxim (1971)\06 - Gemini.wav

Pre-gap length 0:00:01.98

Peak level 94.2 %
Extraction speed 4.1 X
Track quality 100.0 %
Test CRC 4B7A9BF6
Copy CRC 4B7A9BF6
Track not present in AccurateRip database
Copy OK

Track 7

Filename C:\Users\Windows\Desktop\17657\Users\Nelson Souto\Documents\Odin - Live At The Maxim (1971)\07 - Cinnamon Girl.wav

Pre-gap length 0:00:01.98

Peak level 94.2 %
Extraction speed 4.1 X
Track quality 100.0 %
Test CRC 9DE9071D
Copy CRC 9DE9071D
Track not present in AccurateRip database
Copy OK

Track 8

Filename C:\Users\Windows\Desktop\17657\Users\Nelson Souto\Documents\Odin - Live At The Maxim (1971)\08 - Little House.wav

Pre-gap length 0:00:01.98

Peak level 94.2 %
Extraction speed 3.3 X
Track quality 99.9 %
Test CRC E8B7FA28
Copy CRC E8B7FA28
Track not present in AccurateRip database
Copy OK

Track 9

Filename C:\Users\Windows\Desktop\17657\Users\Nelson Souto\Documents\Odin - Live At The Maxim (1971)\09 - Peaches En Regalia.wav

Pre-gap length 0:00:01.97

Peak level 94.2 %
Extraction speed 3.7 X
Track quality 99.9 %
Test CRC 9DF5ECED
Copy CRC 9DF5ECED
Track not present in AccurateRip database
Copy OK

Track 10

Filename C:\Users\Windows\Desktop\17657\Users\Nelson Souto\Documents\Odin - Live At The Maxim (1971)\10 - 21th Century Schizoid Man.wav

Pre-gap length 0:00:01.98

Peak level 94.2 %
Extraction speed 4.9 X
Track quality 100.0 %
Test CRC 657D393A
Copy CRC 657D393A
Track not present in AccurateRip database
Copy OK


None of the tracks are present in the AccurateRip database

No errors occurred

End of status report

–– CUETools DB Plugin V2.1.6

[CTDB TOCID: zTSh67hS6DfCCoOQd8NNonbnURQ-] disk not present in database
Submit result: zTSh67hS6DfCCoOQd8NNonbnURQ- has been uploaded


==== Log checksum 344D91CCB8DF424050AC2894D489B4153DDFCBE88EF3463484AC2F4211EA7333 ====

All thanks go to the Nelsoul

More Music in My Blog
Follow My RSS Channel