Subcategories

V.A. - All the Arhontorembetika (4CD Box, 2008)

Posted By: Speedyclick
V.A. - All the Arhontorembetika (4CD Box, 2008)

V.A. - All the Arhontorembetika (4CD Box, 2008)
4CD EAC Rips | FLAC (image & cue & log) & mp3 @ 320 kbps | tracks: 80 | ~ 1.49 Gb & 552 Mb | 3:27:38
Label: LYRA | 5% recovery record | Full 600dpi Scans | Genre: Greek folk songs, rembetika

"Arhontorembetika" (rembetika of the bourgeoise) was the name given to a special style of songs of the 50's that were "rebetika" written by composers of the, so called, light (european style) song. They were really very beautiful songs, with a humoristic mood, ideal for happy and joyful nights, with lot of laugh, wine, dance and flirt. The great singer Vicky Mosholiou, one of the best and most beloved in Greece, recorded 2 CD with popular "arhontorembetika", that made a huge success. This excellent collection includes, in addition to Mosholiou's songs, other happy songs, that represent the "lighter" side of folk and rembetiko composers. Enjoy a unique and rich collection of beautiful dancing songs that will bring you in the "greek kefi" mood.

V.A. - All the Arhontorembetika (4CD Box, 2008)

TRACKLIST

CD1 (~ 388 Mb & 137 Mb | 53:38)
01. Vicky Mosholiou - The last tram (To tram to telefteo)
02. Mary Linda - Previous loves (Perasmenes mou agapes)
03. Magia Melagia - My beautiful night (Nihta mou omorfi)
04. Vicky Mosholiou - Tramparifas
05. Sotiria Mpelou - Ntermpenterissa
06. Vangelis Perpiniadis - Alexandra's news (Ta nea tis Alexandras)
07. Haroula Lampraki & Ta Pedia Apo Tin Patra - I am not your George (Den ime go o Giorgos sou)
08. Haroula Lampraki & Ta Pedia Apo Tin Patra - Uncle Tom (Mparmpa Thomas)
09. Haroula Lampraki & Ta Pedia Apo Tin Patra - Quarrel (Kavgadaki)
10. Haroula Lampraki & Ta Pedia Apo Tin Patra - My little kompoloi (To kompologaki mou)
11. Ta Pedia Apo Tin Patra - In Piraeus is getting cloudy (Ston Pirea sinefiase)
12. Vicky Mosholiou - Impossible to sleep (Adinaton na kimitho)
13. Mimis Hrisomalis - The instruments began (Arhisan ta organa)
14. Opisthodromiki Kompania - Zehra
15. Mary Linda - The passa-tempo
16. Mary Linda - I don't care for money (To hrima den to logariazo)
17. Mary Linda - My Salonica (Thesaloniki mou)
18. Vicky Mosholiou - What a boy (Popopo ena agori)
19. Zozo Sapountzaki - Ala
20. Vicky Mosholiou - The dressmaker's girl (I modistroula)

CD2 (~ 403 Mb & 144 Mb | 58:47)
01. Vicky Mosholiou - Ala
02. Mary Linda - You are like the sea (Miazis ki esi sa thalasa)
03. Magia Melagia - Get up baby and break them (Siko pedi mou ke spasta)
04. Vicky Mosholiou - In vain (Harami)
05. Alexandra - Punks (Alania)
06. Giorgos Mitsakis & Frantzeska Kavadia - Take my ring (Pare to dahtilidi mou)
07. Giorgos Mitsakis & Yiannis Mpogdanos - One woman, two men (Mia gineka dio antres)
08. Giorgos Mitsakis & Sophia Diamanti - Little kompoloi (To kompologaki)
09. Sotiria Mpelou - You came home again at three last night (Pali stis tris irthes ehthes)
10. Argiro Kaparou - Kill me (Skotose me)
11. Vicky Mosholiou - The slap (To hastouki)
12. Mary Linda - Sunsets (Iliovasilemata)
13. Mary Linda - Don't get me dizzy (Mi mou zalizis to mialo)
14. Mary Linda - I'll tell you my secret (Tha sou po to mistiko mou)
15. Mary Linda - I suffer because of you (Esi ise i etia pou ipofero)
16. Eleni Roda - Old friends (I palioparea)
17. Vicky Mosholiou - Odds or evens (Mona ziga)
18. Nena Menti - My God what a boy (Panagia mou ena pedi)
19. Vicky Mosholiou - Things will change (Tha girisi ki' o trohos)
20. Mary Linda - Turn out the flame (Svise ti floga)

CD3 (~ 340 Mb & 131 Mb | 47:31)
01. Vicky Mosholiou - The last night (I teleftea nihta)
02. Mary Linda - The boat (I skouna)
03. Magia Melagia - My destiny (To pepromeno mou)
04. Vicky Mosholiou - The cigarette case (I tampakiera)
05. Jenny Vanou - The minore of the dawn (To minore tis avgis)
06. Giorgos Mitsakis & Giorgos Melas - I am your first love (I proti agapi sou ime ego)
07. Giorgos Mitsakis & Yiannis Mpogdanos - The rain has started (Psili vrohoula epiase)
08. Giorgos Mitsakis & Frantzesca Kavadia - Heart broken for you (To diko sou to marazi)
09. Vicky Mosholiou - My girl (Koritsara mou)
10. Keti Ntali - It's late (Ine arga)
11. Vicky Mosholiou - Cruel life, cruel world and cruel society (Paliozoi, paliokosme ke paliokinonia)
12. Mary Linda - Call me (Pare me sto tilefono)
13. Mary Linda - Unexpectedly (Apotoma)
14. Mary Linda - Sorrow (Thlipsi)
15. Mary Linda - You will marry me (Tha mou valis tin kouloura)
16. Mary Linda - Poor people and rich people (Laos ke kolonaki)
17. Mary Linda - Deals (Partides)
18. Vicky Mosholiou - My jewel (Mpizoudaki mou)
19. Eleni Roda - I want to break all (Thelo na ta spaso)
20. Mpampis Goles - I had a dream (Ego to ida to oniro)

CD4 (~ 391 Mb & 140 Mb | 52:42)
01. Vicky Mosholiou - I don't care (O minas ehi enia)
02. Mary Linda - The last drink (To telefteo potiraki)
03. Alexandra - The path (To monopati)
04. Vicky Mosholiou - The suitcase (I valitsa)
05. Loukas Daralas - The rich boy (To plousiopedo)
06. Vicky Mosholiou & Tasos Halkias - Ok (Entaksi)
07. Keti Ntali - The waiter (To garsoni)
08. Argiro Kaparou - You will marry me (Tha mou valis tin kouloura)
09. Vicky Mosholiou - The kompoloi
10. Mpampis Goles - Damn luck (Atimi tihi)
11. Eleni Roda - The story teller (O paramithas)
12. Vicky Mosholiou - All ruined (Ola rimadia)
13. Mary Linda - You (Esi)
14. Mary Linda - I don't want you back any more (Den thelo pia na xanarthis)
15. Mary Linda - Since you want it (Afou to thes)
16. Mary Linda - My brunette gypsy girl (Melahrini tsigana mou)
17. Mary Linda - Kiss me tonight (Apopse fila me)
18. Mary Linda - Many times (Poles fores)
19. Mario & Giorgos Tzortzis - Where will you drive me (Pou tha me pas)
20. Vicky Mosholiou - Winter has come (Himoniase himoniase)

Exact Audio Copy V1.0 beta 1 from 15. November 2010

EAC extraction logfile from 12. August 2011, 13:20

Various / Ola ta Arxontorempetika CD1

Used drive : HL-DT-STDVDRAM GH10N Adapter: 3 ID: 0

Read mode : Secure
Utilize accurate stream : Yes
Defeat audio cache : Yes
Make use of C2 pointers : No

Read offset correction : 667
Overread into Lead-In and Lead-Out : No
Fill up missing offset samples with silence : Yes
Delete leading and trailing silent blocks : No
Null samples used in CRC calculations : Yes
Used interface : Native Win32 interface for Win NT & 2000

Used output format : User Defined Encoder
Selected bitrate : 1024 kBit/s
Quality : High
Add ID3 tag : No
Command line compressor : C:\Program Files\FLAC\flac.exe
Additional command line options : -V -5 -T "artist=%a" -T "title=%t" -T "album=%g" -T "date=%y" -T "tracknumber=%n" -T "genre=%m" -5 %s


TOC of the extracted CD

Track | Start | Length | Start sector | End sector
––––––––––––––––––––––––––––-
1 | 0:00.00 | 3:34.16 | 0 | 16065
2 | 3:34.16 | 3:12.73 | 16066 | 30538
3 | 6:47.14 | 2:15.64 | 30539 | 40727
4 | 9:03.03 | 3:09.08 | 40728 | 54910
5 | 12:12.11 | 3:08.70 | 54911 | 69080
6 | 15:21.06 | 3:14.05 | 69081 | 83635
7 | 18:35.11 | 1:30.13 | 83636 | 90398
8 | 20:05.24 | 2:23.33 | 90399 | 101156
9 | 22:28.57 | 1:48.22 | 101157 | 109278
10 | 24:17.04 | 1:47.70 | 109279 | 117373
11 | 26:04.74 | 2:05.56 | 117374 | 126804
12 | 28:10.55 | 2:34.06 | 126805 | 138360
13 | 30:44.61 | 3:15.60 | 138361 | 153045
14 | 34:00.46 | 4:44.31 | 153046 | 174376
15 | 38:45.02 | 2:40.14 | 174377 | 186390
16 | 41:25.16 | 1:07.03 | 186391 | 191418
17 | 42:32.19 | 1:52.64 | 191419 | 199882
18 | 44:25.08 | 2:48.30 | 199883 | 212512
19 | 47:13.38 | 6:25.02 | 212513 | 241389
20 | 50:14.67 | 3:23.48 | 226117 | 241389


Range status and errors

Selected range

Filename U:\EAC Rips\GREEK\Arxontorempetika\Arxontorempetika CD1\Various - Ola ta Arxontorempetika CD1.wav

Peak level 98.8 %
Extraction speed 0.3 X
Range quality 100.0 %
Test CRC 2CA60D86
Copy CRC 2CA60D86
Copy OK

No errors occurred


AccurateRip summary

Track 1 not present in database
Track 2 not present in database
Track 3 not present in database
Track 4 not present in database
Track 5 not present in database
Track 6 not present in database
Track 7 not present in database
Track 8 not present in database
Track 9 not present in database
Track 10 not present in database
Track 11 not present in database
Track 12 not present in database
Track 13 not present in database
Track 14 not present in database
Track 15 not present in database
Track 16 not present in database
Track 17 not present in database
Track 18 not present in database
Track 19 not present in database
Track 20 not present in database

None of the tracks are present in the AccurateRip database

End of status report

==== Log checksum 1245FED3A7AAD3B115867CF8A4BE237FEFFCFDB823815F1DC5F309D1595B470F ====

Exact Audio Copy V1.0 beta 1 from 15. November 2010

EAC extraction logfile from 12. August 2011, 18:13

Various / Ola ta Arxontorempetika CD2

Used drive : HL-DT-STDVDRAM GH10N Adapter: 3 ID: 0

Read mode : Secure
Utilize accurate stream : Yes
Defeat audio cache : Yes
Make use of C2 pointers : No

Read offset correction : 667
Overread into Lead-In and Lead-Out : No
Fill up missing offset samples with silence : Yes
Delete leading and trailing silent blocks : No
Null samples used in CRC calculations : Yes
Used interface : Native Win32 interface for Win NT & 2000

Used output format : User Defined Encoder
Selected bitrate : 1024 kBit/s
Quality : High
Add ID3 tag : No
Command line compressor : C:\Program Files\FLAC\flac.exe
Additional command line options : -V -5 -T "artist=%a" -T "title=%t" -T "album=%g" -T "date=%y" -T "tracknumber=%n" -T "genre=%m" -5 %s


TOC of the extracted CD

Track | Start | Length | Start sector | End sector
––––––––––––––––––––––––––––-
1 | 0:00.00 | 2:42.39 | 0 | 12188
2 | 2:42.39 | 3:24.53 | 12189 | 27541
3 | 6:07.17 | 1:42.46 | 27542 | 35237
4 | 7:49.63 | 4:12.04 | 35238 | 54141
5 | 12:01.67 | 2:59.13 | 54142 | 67579
6 | 15:01.05 | 1:46.63 | 67580 | 75592
7 | 16:47.68 | 2:27.62 | 75593 | 86679
8 | 19:15.55 | 1:50.48 | 86680 | 94977
9 | 21:06.28 | 3:20.16 | 94978 | 109993
10 | 24:26.44 | 3:25.64 | 109994 | 125432
11 | 27:52.33 | 3:44.51 | 125433 | 142283
12 | 31:37.09 | 1:46.56 | 142284 | 150289
13 | 33:23.65 | 0:43.72 | 150290 | 153586
14 | 34:07.62 | 1:01.11 | 153587 | 158172
15 | 35:08.73 | 2:56.49 | 158173 | 171421
16 | 38:05.47 | 3:51.36 | 171422 | 188782
17 | 41:57.08 | 3:20.07 | 188783 | 203789
18 | 45:17.15 | 2:14.53 | 203790 | 213892
19 | 47:31.68 | 6:16.05 | 213893 | 242097
20 | 49:59.58 | 3:48.15 | 224983 | 242097


Range status and errors

Selected range

Filename U:\EAC Rips\GREEK\Arxontorempetika\Arxontorempetika CD2\Various - Ola ta Arxontorempetika CD2.wav

Peak level 97.7 %
Extraction speed 0.4 X
Range quality 100.0 %
Test CRC C9C22A32
Copy CRC C9C22A32
Copy OK

No errors occurred


AccurateRip summary

Track 1 accurately ripped (confidence 1) [534D36EF]
Track 2 accurately ripped (confidence 1) [3AECE7B4]
Track 3 accurately ripped (confidence 1) [22463DB1]
Track 4 accurately ripped (confidence 1) [5E167712]
Track 5 accurately ripped (confidence 1) [F68D61BD]
Track 6 accurately ripped (confidence 1) [55EC3B99]
Track 7 accurately ripped (confidence 1) [2ECE3D59]
Track 8 accurately ripped (confidence 1) [124062EF]
Track 9 accurately ripped (confidence 1) [39FE016C]
Track 10 accurately ripped (confidence 1) [4D3CE613]
Track 11 accurately ripped (confidence 1) [D1BB9068]
Track 12 accurately ripped (confidence 1) [02042A66]
Track 13 accurately ripped (confidence 1) [CE93AAB6]
Track 14 accurately ripped (confidence 1) [EC254F21]
Track 15 accurately ripped (confidence 1) [B33F7ED4]
Track 16 accurately ripped (confidence 1) [B13885F6]
Track 17 accurately ripped (confidence 1) [664C74EF]
Track 18 accurately ripped (confidence 1) [A5F06FD0]
Track 19 accurately ripped (confidence 1) [159FE9B5]
Track 20 accurately ripped (confidence 1) [2132AD8D]

All tracks accurately ripped

End of status report

==== Log checksum 96AA69A26A2A2DD4192B1C2896F3878A2BF612F93685F975A259526E4E08D727 ====

Exact Audio Copy V1.0 beta 1 from 15. November 2010

EAC extraction logfile from 12. August 2011, 20:51

Various / Ola ta Arxontorempetika CD3

Used drive : HL-DT-STDVDRAM GH10N Adapter: 3 ID: 0

Read mode : Secure
Utilize accurate stream : Yes
Defeat audio cache : Yes
Make use of C2 pointers : No

Read offset correction : 667
Overread into Lead-In and Lead-Out : No
Fill up missing offset samples with silence : Yes
Delete leading and trailing silent blocks : No
Null samples used in CRC calculations : Yes
Used interface : Native Win32 interface for Win NT & 2000

Used output format : User Defined Encoder
Selected bitrate : 1024 kBit/s
Quality : High
Add ID3 tag : No
Command line compressor : C:\Program Files\FLAC\flac.exe
Additional command line options : -V -5 -T "artist=%a" -T "title=%t" -T "album=%g" -T "date=%y" -T "tracknumber=%n" -T "genre=%m" -5 %s


TOC of the extracted CD

Track | Start | Length | Start sector | End sector
––––––––––––––––––––––––––––-
1 | 0:00.00 | 3:15.64 | 0 | 14688
2 | 3:15.64 | 2:53.14 | 14689 | 27677
3 | 6:09.03 | 3:41.08 | 27678 | 44260
4 | 9:50.11 | 4:04.02 | 44261 | 62562
5 | 13:54.13 | 3:00.74 | 62563 | 76136
6 | 16:55.12 | 2:35.09 | 76137 | 87770
7 | 19:30.21 | 1:43.71 | 87771 | 95566
8 | 21:14.17 | 2:19.13 | 95567 | 106004
9 | 23:33.30 | 2:42.15 | 106005 | 118169
10 | 26:15.45 | 2:46.48 | 118170 | 130667
11 | 29:02.18 | 3:00.52 | 130668 | 144219
12 | 32:02.70 | 1:15.21 | 144220 | 149865
13 | 33:18.16 | 0:44.52 | 149866 | 153217
14 | 34:02.68 | 1:14.31 | 153218 | 158798
15 | 35:17.24 | 1:00.03 | 158799 | 163301
16 | 36:17.27 | 1:00.41 | 163302 | 167842
17 | 37:17.68 | 1:40.63 | 167843 | 175405
18 | 38:58.56 | 2:42.14 | 175406 | 187569
19 | 41:40.70 | 5:50.20 | 187570 | 213839
20 | 44:29.46 | 3:01.44 | 200221 | 213839


Range status and errors

Selected range

Filename U:\EAC Rips\GREEK\Arxontorempetika\Arxontorempetika CD3\Various - Ola ta Arxontorempetika CD3.wav

Peak level 97.7 %
Extraction speed 0.3 X
Range quality 100.0 %
Test CRC AE0471E2
Copy CRC AE0471E2
Copy OK

No errors occurred


AccurateRip summary

Track 1 accurately ripped (confidence 1) [85C8E395]
Track 2 accurately ripped (confidence 1) [1D538F64]
Track 3 accurately ripped (confidence 1) [4C924E0B]
Track 4 accurately ripped (confidence 1) [1DD1C9D9]
Track 5 accurately ripped (confidence 1) [EB4EE43C]
Track 6 accurately ripped (confidence 1) [89C31678]
Track 7 accurately ripped (confidence 1) [2C198FC7]
Track 8 accurately ripped (confidence 1) [FF463516]
Track 9 accurately ripped (confidence 1) [CA879874]
Track 10 accurately ripped (confidence 1) [485E3169]
Track 11 accurately ripped (confidence 1) [4663C3C1]
Track 12 accurately ripped (confidence 1) [556FBB16]
Track 13 accurately ripped (confidence 1) [E2F07255]
Track 14 accurately ripped (confidence 1) [17A085B0]
Track 15 accurately ripped (confidence 1) [83DA523F]
Track 16 accurately ripped (confidence 1) [C2A15337]
Track 17 accurately ripped (confidence 1) [903F58B8]
Track 18 accurately ripped (confidence 1) [C60A949F]
Track 19 accurately ripped (confidence 1) [03E6F4D4]
Track 20 accurately ripped (confidence 1) [C574F5DA]

All tracks accurately ripped

End of status report

==== Log checksum DD2A7CDA60FDB0889657E7A16FB721C7DAF2686E0CD6FFADB3A0DC54C3932C64 ====

Exact Audio Copy V1.0 beta 1 from 15. November 2010

EAC extraction logfile from 13. August 2011, 3:54

Various / Ola ta Arxontorempetika CD4

Used drive : HL-DT-STDVDRAM GH10N Adapter: 3 ID: 0

Read mode : Secure
Utilize accurate stream : Yes
Defeat audio cache : Yes
Make use of C2 pointers : No

Read offset correction : 667
Overread into Lead-In and Lead-Out : No
Fill up missing offset samples with silence : Yes
Delete leading and trailing silent blocks : No
Null samples used in CRC calculations : Yes
Used interface : Native Win32 interface for Win NT & 2000

Used output format : User Defined Encoder
Selected bitrate : 1024 kBit/s
Quality : High
Add ID3 tag : No
Command line compressor : C:\Program Files\FLAC\flac.exe
Additional command line options : -V -5 -T "artist=%a" -T "title=%t" -T "album=%g" -T "date=%y" -T "tracknumber=%n" -T "genre=%m" -5 %s


TOC of the extracted CD

Track | Start | Length | Start sector | End sector
––––––––––––––––––––––––––––-
1 | 0:00.00 | 2:39.67 | 0 | 11991
2 | 2:39.67 | 2:52.37 | 11992 | 24928
3 | 5:32.29 | 3:36.58 | 24929 | 41186
4 | 9:09.12 | 2:05.06 | 41187 | 50567
5 | 11:14.18 | 3:33.50 | 50568 | 66592
6 | 14:47.68 | 2:59.04 | 66593 | 80021
7 | 17:46.72 | 4:23.43 | 80022 | 99789
8 | 22:10.40 | 3:01.31 | 99790 | 113395
9 | 25:11.71 | 3:20.10 | 113396 | 128405
10 | 28:32.06 | 2:39.61 | 128406 | 140391
11 | 31:11.67 | 2:21.64 | 140392 | 151030
12 | 33:33.56 | 4:28.41 | 151031 | 171171
13 | 38:02.22 | 1:29.55 | 171172 | 177901
14 | 39:32.02 | 1:09.34 | 177902 | 183110
15 | 40:41.36 | 1:10.05 | 183111 | 188365
16 | 41:51.41 | 1:04.01 | 188366 | 193166
17 | 42:55.42 | 1:10.69 | 193167 | 198485
18 | 44:06.36 | 1:29.37 | 198486 | 205197
19 | 45:35.73 | 7:06.07 | 205198 | 237154
20 | 49:51.67 | 2:50.13 | 224392 | 237154


Range status and errors

Selected range

Filename U:\EAC Rips\GREEK\Arxontorempetika\Arxontorempetika CD4\Various - Ola ta Arxontorempetika CD4.wav

Peak level 99.9 %
Extraction speed 3.8 X
Range quality 98.8 %
Test CRC FFBF7556
Copy CRC FFBF7556
Copy OK

No errors occurred


AccurateRip summary

Track 1 not present in database
Track 2 accurately ripped (confidence 1) [1331A4DA]
Track 3 accurately ripped (confidence 1) [E0CBC91C]
Track 4 accurately ripped (confidence 1) [0FAAD8BC]
Track 5 accurately ripped (confidence 1) [4F83A218]
Track 6 accurately ripped (confidence 1) [2D703041]
Track 7 accurately ripped (confidence 1) [37171C30]
Track 8 accurately ripped (confidence 1) [D62AEAB0]
Track 9 accurately ripped (confidence 1) [398C3CBF]
Track 10 not present in database
Track 11 accurately ripped (confidence 1) [B9510DB8]
Track 12 accurately ripped (confidence 1) [7ECBB5EE]
Track 13 accurately ripped (confidence 1) [DB699077]
Track 14 accurately ripped (confidence 1) [3F1134DA]
Track 15 accurately ripped (confidence 1) [1744EF69]
Track 16 accurately ripped (confidence 1) [106FA069]
Track 17 accurately ripped (confidence 1) [F046E682]
Track 18 cannot be verified as accurate (confidence 1) [9DFA7689], AccurateRip returned [5199451F]
Track 19 cannot be verified as accurate (confidence 1) [4FB2059C], AccurateRip returned [18469535]
Track 20 cannot be verified as accurate (confidence 1) [C7B8FDCE], AccurateRip returned [82BA9A9C]

15 track(s) accurately ripped
3 track(s) could not be verified as accurate
2 track(s) not present in the AccurateRip database

Some tracks could not be verified as accurate

End of status report

==== Log checksum 2497A0465E339C4D8A7D126ADF77197A824FA281826FF0CF93798A1C873068B8 ====