Subcategories

Oliver Nelson - Stolen Moments (1975) {2015 DSD Japan East Wind Masters Collection 1000 UCCJ-9144}

Posted By: ruskaval
Oliver Nelson - Stolen Moments (1975) {2015 DSD Japan East Wind Masters Collection 1000 UCCJ-9144}

Oliver Nelson - Stolen Moments (1975) {2015 DSD Japan East Wind Masters Collection 1000 UCCJ-9144}
EAC rip (secure mode) | FLAC (tracks)+CUE+LOG -> 260 Mb | MP3 @320 -> 85 Mb
Full Artwork @ 600 dpi (png) -> 144 Mb | 5% repair rar | DSD Mastering
© 1975, 2015 East Wind Music / Universal Japan | UCCJ-9144
Jazz / Post Bop / Modern Jazz Group / Saxophone

Reissue with the latest DSD remastering. One of the last sessions Oliver Nelson ever recorded – a genius batch of work recorded for the Japanese East Wind label, and maybe one of his greatest albums ever! The set's a wonderful link between the sophisticated large group sounds that Nelson did for Impulse Records in the 60s, and some of the more expansive styles he was trying out on the Flying Dutchman imprint in the 70s – a batch of work that both has that sense of majesty that Nelson could command at his best, but which still retains an earthy vibe overall.

The group is great – with soulful work from Bobby Bryant on trumpet, Jerome Richardson on soprano sax and flute, Buddy Collette on tenor and flute, and Jack Nimitz on baritone – and the rhythm section has some great Fender Rhodes from Mike Wofford, given more push from the electric bass of Chuck Dominico, and some open-ended drum work from Shelly Manne. Titles include a wonderful remake of Nelson's "Stolen Moments", the groover "Mission Accomplished", and the tracks "St Thomas", "Three Seconds", and "Yearnin".
Oliver Nelson - Stolen Moments (1975) {2015 DSD Japan East Wind Masters Collection 1000 UCCJ-9144}


Personnel:
Oliver Nelson - alto sax, arranger
Jack Nimitz - baritone sax
Jerome Richardson - soprano sax, flute, picc
Buddy Collette, Bobby Bryant Jr. - tenor sax, flute
Bobby Bryant - trumpet, flugelhorn
Mike Wofford – piano, electro piano
Chuck Domanico – electro bass
Shelly Manne - drums

tracklist:
01 - Stolen Moments
02 - St. Thomas
03 - Three Seconds
04 - Mission Accomplished
05 - Midnight Blue
06 - Yeanin'
07 - Straight, No Chaser

Exact Audio Copy V1.0 beta 4 from 7. December 2014

EAC extraction logfile from 28. February 2015, 17:10

Oliver Nelson / Stolen Moments

Used drive : TSSTcorpCDDVDW SE-208DB Adapter: 1 ID: 1

Read mode : Secure
Utilize accurate stream : Yes
Defeat audio cache : Yes
Make use of C2 pointers : No

Read offset correction : 6
Overread into Lead-In and Lead-Out : No
Fill up missing offset samples with silence : Yes
Delete leading and trailing silent blocks : No
Null samples used in CRC calculations : Yes
Used interface : Native Win32 interface for Win NT & 2000
Gap handling : Appended to previous track

Used output format : User Defined Encoder
Selected bitrate : 1024 kBit/s
Quality : High
Add ID3 tag : No
Command line compressor : C:\Program Files (x86)\FLAC Frontend\tools\flac.exe
Additional command line options : -8 -V -T "ARTIST=%artist%" -T "TITLE=%title%" -T "ALBUM=%albumtitle%" -T "DATE=%year%" -T "TRACKNUMBER=%tracknr%" -T "TOTALTRACKS=%numtracks%" -T "GENRE=%genre%" -T "ALBUMARTIST=%albumartist%" -T "ALBUM ARTIST=%albumartist%" -T "COMMENT=EAC Secure Mode, Test & Copy, AccurateRip, FLAC -8" %source%


TOC of the extracted CD

Track | Start | Length | Start sector | End sector
––––––––––––––––––––––––––––-
1 | 0:00.00 | 7:51.68 | 0 | 35392
2 | 7:51.68 | 4:01.65 | 35393 | 53532
3 | 11:53.58 | 6:32.47 | 53533 | 82979
4 | 18:26.30 | 6:35.28 | 82980 | 112632
5 | 25:01.58 | 4:14.55 | 112633 | 131737
6 | 29:16.38 | 6:29.57 | 131738 | 160969
7 | 35:46.20 | 0:39.53 | 160970 | 163947


Track 1

Filename D:\_EAC\Oliver Nelson - Stolen Moments (1975) {2015 DSD Japan East Wind Masters Collection 1000}\01 - Stolen Moments.wav

Pre-gap length 0:00:02.00

Peak level 100.0 %
Extraction speed 2.9 X
Track quality 100.0 %
Test CRC 9504B523
Copy CRC 9504B523
Cannot be verified as accurate (confidence 1) [1B2E465C], AccurateRip returned [730BD3F5] (AR v2)
Copy OK

Track 2

Filename D:\_EAC\Oliver Nelson - Stolen Moments (1975) {2015 DSD Japan East Wind Masters Collection 1000}\02 - St. Thomas.wav

Pre-gap length 0:00:04.08

Peak level 100.0 %
Extraction speed 3.1 X
Track quality 100.0 %
Test CRC D4F8ED77
Copy CRC D4F8ED77
Cannot be verified as accurate (confidence 1) [072E86D0], AccurateRip returned [6F513A99] (AR v2)
Copy OK

Track 3

Filename D:\_EAC\Oliver Nelson - Stolen Moments (1975) {2015 DSD Japan East Wind Masters Collection 1000}\03 - Three Seconds.wav

Pre-gap length 0:00:04.10

Peak level 100.0 %
Extraction speed 3.6 X
Track quality 100.0 %
Test CRC EC468ACA
Copy CRC EC468ACA
Cannot be verified as accurate (confidence 1) [3274F830], AccurateRip returned [BDFCE3B3] (AR v2)
Copy OK

Track 4

Filename D:\_EAC\Oliver Nelson - Stolen Moments (1975) {2015 DSD Japan East Wind Masters Collection 1000}\04 - Mission Accomplished.wav

Pre-gap length 0:00:04.55

Peak level 100.0 %
Extraction speed 3.5 X
Track quality 99.9 %
Test CRC 86599598
Copy CRC 86599598
Cannot be verified as accurate (confidence 1) [254A1B5F], AccurateRip returned [CBE4811F] (AR v2)
Copy OK

Track 5

Filename D:\_EAC\Oliver Nelson - Stolen Moments (1975) {2015 DSD Japan East Wind Masters Collection 1000}\05 - Midnight Blue.wav

Pre-gap length 0:00:05.55

Peak level 94.1 %
Extraction speed 4.1 X
Track quality 100.0 %
Test CRC AFC6AC05
Copy CRC AFC6AC05
Cannot be verified as accurate (confidence 1) [0573436E], AccurateRip returned [5D219F70] (AR v2)
Copy OK

Track 6

Filename D:\_EAC\Oliver Nelson - Stolen Moments (1975) {2015 DSD Japan East Wind Masters Collection 1000}\06 - Yeanin'.wav

Pre-gap length 0:00:04.08

Peak level 100.0 %
Extraction speed 3.9 X
Track quality 99.9 %
Test CRC 83A9F4CD
Copy CRC 83A9F4CD
Cannot be verified as accurate (confidence 1) [401147A7], AccurateRip returned [D57E4E08] (AR v2)
Copy OK

Track 7

Filename D:\_EAC\Oliver Nelson - Stolen Moments (1975) {2015 DSD Japan East Wind Masters Collection 1000}\07 - Straight, No Chaser.wav

Pre-gap length 0:00:03.65

Peak level 100.0 %
Extraction speed 2.5 X
Track quality 100.0 %
Test CRC 6FF5F32D
Copy CRC 6FF5F32D
Cannot be verified as accurate (confidence 1) [5AC4F6CD], AccurateRip returned [6910CD17] (AR v2)
Copy OK


No tracks could be verified as accurate
You may have a different pressing from the one(s) in the database

No errors occurred

End of status report

==== Log checksum 1226DADF7BEC9AE1B29C5CD062226CA25FEB0A908D669118555D420B11018302 ====


Oliver Nelson - Stolen Moments (1975) {2015 DSD Japan East Wind Masters Collection 1000 UCCJ-9144}

Oliver Nelson - Stolen Moments (1975) {2015 DSD Japan East Wind Masters Collection 1000 UCCJ-9144}


see more DSD Japan East Wind Masters Collection 1000 Series…


===