Subcategories

Orchestral Manoeuvres In The Dark - Organisation (DIDCD 6) (UK 1985) (First Press)

Posted By: luckburz
Orchestral Manoeuvres In The Dark - Organisation (DIDCD 6) (UK 1985) (First Press)

Orchestral Manoeuvres In The Dark - Organisation (DIDCD 6) (UK 1985) (First Press)
1985 | FLAC | EAC, LOG & CUE | 300dpi Artwork Scans | 258 MB

MD5 [] FFP [] CUE [X] LOG [X] INFO TEXT [X] ARTWORK [X]


Extraction Log:

Exact Audio Copy V0.99 prebeta 4 from 23. January 2008

EAC Auslese-Logdatei vom 20. April 2009, 17:46

Orchestral Manoeuvres In The Dark / Organisation (DIDCD 6) (UK 1985)

Benutztes Laufwerk : HL-DT-STDVDRAM GSA-H12L Adapter: 0 ID: 1

Lesemodus : Sicher
Benutze Accurate Stream : Ja
Audio Puffer abgeschaltet : Nein
Benutze C2 Fehlerinformationen : Nein

Leseoffset Korrektur : 667
Überlesen in das Lead-In und Lead-Out : Nein
Fülle fehlende Offsetsample mit Stille auf : Ja
Lösche führende und nachfolgende stille Blöcke : Nein
Null Samples gehen in CRC Berechnungen ein : Ja
Benutzte Schnittstelle : Natürliche Win32 Schnittstelle für Win NT/2000/XP
Pausenbehandlung : Hinter dem vorigen Track angehängt

Benutztes Ausgabeformat : Benutzerdefinierter Komprimierer
Gewählte Bitrate : 1024 kBit/s
Qualität : Hoch
Füge ID3 Tag hinzu : Ja
Kommandozeilen Komprimierer : C:\Programme\FLAC\flac.exe
Zusätzliche Kommandozeilenoptionen : -5 -T "Artist=%a" -T "Title=%t" -T "Album=%g" -T "Date=%y" -T "Tracknumber=%n" -T "Genre=%m" %s -o %d


TOC der ausgelesenen CD

Track | Start | Länge | Startsektor | Endsektor
–––––––––––––––––––––––––––-
1 | 0:00.32 | 3:34.60 | 32 | 16141
2 | 3:35.17 | 4:15.68 | 16142 | 35334
3 | 7:51.10 | 3:50.52 | 35335 | 52636
4 | 11:41.62 | 3:17.08 | 52637 | 67419
5 | 14:58.70 | 4:27.17 | 67420 | 87461
6 | 19:26.12 | 4:53.45 | 87462 | 109481
7 | 24:19.57 | 4:12.13 | 109482 | 128394
8 | 28:31.70 | 4:49.40 | 128395 | 150109
9 | 33:21.35 | 6:41.32 | 150110 | 180216


Track 1

Dateiname V:\INCOMING\LOSSLESS\ZZZ-EAC\01 Enola Gay.wav

Pausenlänge 0:00:02.32

Spitzenpegel 86.4 %
Track Qualität 100.0 %
Test CRC 56729A4D
Kopie CRC 56729A4D
Kann nicht als akkurat verifiziert werden (Zuversicht 2) [003A2F89], AccurateRip lieferte [DFD25EEF]
Kopie OK

Track 2

Dateiname V:\INCOMING\LOSSLESS\ZZZ-EAC\02 2nd Thought.wav

Pausenlänge 0:00:00.02

Spitzenpegel 89.9 %
Track Qualität 100.0 %
Test CRC B3B8F8BB
Kopie CRC B3B8F8BB
Kann nicht als akkurat verifiziert werden (Zuversicht 2) [F63BDDCF], AccurateRip lieferte [42D942ED]
Kopie OK

Track 3

Dateiname V:\INCOMING\LOSSLESS\ZZZ-EAC\03 VCL XI.wav

Pausenlänge 0:00:02.45

Spitzenpegel 72.3 %
Track Qualität 100.0 %
Test CRC A9A325D9
Kopie CRC A9A325D9
Kann nicht als akkurat verifiziert werden (Zuversicht 2) [397668CE], AccurateRip lieferte [00D06E2C]
Kopie OK

Track 4

Dateiname V:\INCOMING\LOSSLESS\ZZZ-EAC\04 Motion And Heart.wav

Pausenlänge 0:00:00.27

Spitzenpegel 75.0 %
Track Qualität 100.0 %
Test CRC 70A47D63
Kopie CRC 70A47D63
Kann nicht als akkurat verifiziert werden (Zuversicht 2) [A14992C6], AccurateRip lieferte [3EC1C435]
Kopie OK

Track 5

Dateiname V:\INCOMING\LOSSLESS\ZZZ-EAC\05 Statues.wav

Pausenlänge 0:00:02.33

Spitzenpegel 82.0 %
Track Qualität 100.0 %
Test CRC BF37511C
Kopie CRC BF37511C
Kann nicht als akkurat verifiziert werden (Zuversicht 2) [52A85895], AccurateRip lieferte [90FD2D2F]
Kopie OK

Track 6

Dateiname V:\INCOMING\LOSSLESS\ZZZ-EAC\06 The Misunderstanding.wav

Pausenlänge 0:00:02.37

Spitzenpegel 92.5 %
Track Qualität 100.0 %
Test CRC F0BC8E78
Kopie CRC F0BC8E78
Kann nicht als akkurat verifiziert werden (Zuversicht 2) [94FD412D], AccurateRip lieferte [9A758785]
Kopie OK

Track 7

Dateiname V:\INCOMING\LOSSLESS\ZZZ-EAC\07 The More I See You.wav

Pausenlänge 0:00:02.02

Spitzenpegel 80.6 %
Track Qualität 100.0 %
Test CRC C9242FC3
Kopie CRC C9242FC3
Kann nicht als akkurat verifiziert werden (Zuversicht 2) [982338EC], AccurateRip lieferte [42DB2C4E]
Kopie OK

Track 8

Dateiname V:\INCOMING\LOSSLESS\ZZZ-EAC\08 Promise.wav

Pausenlänge 0:00:01.15

Spitzenpegel 96.3 %
Track Qualität 99.9 %
Test CRC 11BA5FF2
Kopie CRC 11BA5FF2
Kann nicht als akkurat verifiziert werden (Zuversicht 2) [8924B0B0], AccurateRip lieferte [8C322BD8]
Kopie OK

Track 9

Dateiname V:\INCOMING\LOSSLESS\ZZZ-EAC\09 Stanlow.wav

Pausenlänge 0:00:00.25

Spitzenpegel 73.5 %
Track Qualität 100.0 %
Test CRC CEF4A590
Kopie CRC CEF4A590
Kann nicht als akkurat verifiziert werden (Zuversicht 2) [FD200773], AccurateRip lieferte [50B31B32]
Kopie OK


Kein Track konnte als akkurat verifiziert werden
Es könnte sich um eine andere Pressung als von der in der Datenbank vorhandenen handeln

Keine Fehler aufgetreten

Ende des Statusreports


CD Info:

Orchestral Manoeuvres In The Dark - Organisation


Label: Dindisc, Virgin
Catalog#: DIDCD 6, DIDCD 6
Format: CD, Album
Country: UK
Released: 1985
Genre: Electronic
Style: Synth-pop
Notes: Reissue of 1980 vinyl LP pressing of Organisation.

Recorded and mixed at Ridge Farm and Advision except of track 2 recorded at The Gramophone Suite. Engineered at Ridge Farm and Advision.
Comes with 4-page booklet.
Original released in 1980.


Tracklisting:
1 Enola Gay (3:25)
2 2nd Thought (4:03)
3 VCL XI (3:45)
4 Motion And Heart (3:08)
5 Statues (4:05)
6 The Misunderstanding (4:40)
7 The More I See You (4:00)
8 Promise (4:38)
9 Stanlow (6:16)

Band Info:

Orchestral Manoeuvres in the Dark (often abbreviated to OMD) are a synthpop group whose founding members are originally from the Wirral Peninsula, England. OMD record for Virgin Records (originally for Virgin's DinDisc subsidiary).

The group was founded by Andy McCluskey and Paul Humphreys, and they formed the core of the outfit until 1989, when the group split. McCluskey then retained the name and continued to record and tour as OMD with a new line-up.

In late December 2005, OMD's official website announced a 2006 reformation, for both live performances and a new album, with rehearsals beginning in summer 2006. The tour began in 2007, featuring the classic line up of McCluskey, Humphreys, Holmes and Cooper. Spring 2008 saw a further tour announced for October that year. wikipedia

Format:

Flac (Compression Level 8)

Links:

[rapidshare.com/200 MB Splits]

via secured.in

http://secured.in/download-321516-d84ebeea.html

via stealth.to
incl. .dlc, .ccf, .rsdf

http://stealth.to/?id=ck5grtn2oe87rm2mg0eix8q5f0c2vm2vuw


Password:

finest-hq-audio



MIRRORS ARE WELCOME BUT NOT ON RAPIDSHARE! Thanks.

If you have problems getting the links from the encrypters, please check if a pop-up is blocked or java is disabled. Both must be allowed!

If you have still problems after that, please write me a message - also if something happens to be down. Thanks.



––> I SUGGEST TO ALL WHO HAVE PROBLEMS USING SECURED.IN or want to download automated with the rsdf (AND ALL OTHERS TOO…) <––
––> TO USE THE FREE DOWNLOAD MANAGER "JDOWNLOADER" <––
––> (DOWNLOAD HERE: http://jdownloader.org/news?lng=en) <––
––> THIS ONE CAN ALSO HANDLE THE RSDF FILE AND DECRYPTS LINK ENCRYPTER PAGES AUTOMATICALLY! <––
––> BELIEVE IN ME, IT WILL MAKE RAPIDSHARE MUCH EASIER! <––