Subcategories

Orange Goblin - The Wolf Bites Back (2018)

Posted By: delpotro
Orange Goblin - The Wolf Bites Back (2018)

Orange Goblin - The Wolf Bites Back (2018)
EAC Rip | FLAC (tracks+log+.cue) - 276 Mb | MP3 CBR 320 kbps - 97 Mb | Scans - 88 Mb | 00:40:36
Stoner Metal | Label: Spinefarm Records, Candlelight Records

London, England's ORANGE GOBLIN has completed work on its new album, "The Wolf Bites Back", for a June release via Candlelight/Spinefarm. The nine-song disc was recorded at Orgone Studios with producer Jaime Gomez Arellano (GHOST, GRAVE PLEASURES, PARADISE LOST, CATHEDRAL).

Vocalist Ben Ward commented: "We are very excited about this new album. 'The Wolf Bites Back' is our strongest and most diverse collection of songs to date, it's certainly a lot darker both musically and lyrically. It is still definitely a distinct ORANGE GOBLIN album but we have incorporated a lot more variation on this record and there are hints of CAN, CAPTAIN BEYOND, WISHBONE ASH and THE STOOGES nestling amongst the obvious SABBATH and MOTÖRHEAD influences. Lyrically, I have explored everything from alien serial killers to zombie biker gangs, Buddhist warriors through to descendants of the Salem witches!"

He continued: "There was definitely a concerted effort to make sure all the songs could work in a live environment which gives the album a more raw, stripped-back feel — something that I feel has been lacking from good rock and metal in recent years.

"Working with Jaime Gomez Arellano was really productive and a great experience, especially going back to tracking stuff to tape. I feel that he got the best out of all of us as musicians and songwriters and that really comes across in the songs, there is an air of confidence and experience. It was also a real honor for us to have Phil Campbell of MOTÖRHEAD lending his hand to a couple of solos on there, too!"
Tracklist:
1. Sons of Salem
2. The Wolf Bites Back
3. Renegade
4. Swords of Fire
5. Ghost of the Primitives
6. In Bocca Al Lupo
7. Suicide Division
8. The Stranger
9. Burn the Ships
10. Zeitgeist

Exact Audio Copy V1.1 from 23. June 2015

EAC extraction logfile from 2. July 2018, 17:31

Orange Goblin / The Wolf Bites Back

Used drive : HL-DT-STBDDVDRW UH12NS30 Adapter: 1 ID: 0

Read mode : Secure
Utilize accurate stream : Yes
Defeat audio cache : Yes
Make use of C2 pointers : No

Read offset correction : 6
Overread into Lead-In and Lead-Out : No
Fill up missing offset samples with silence : Yes
Delete leading and trailing silent blocks : No
Null samples used in CRC calculations : Yes
Used interface : Native Win32 interface for Win NT & 2000
Gap handling : Appended to previous track

Used output format : User Defined Encoder
Selected bitrate : 128 kBit/s
Quality : High
Add ID3 tag : No
Command line compressor : C:\Program Files (x86)\Exact Audio Copy\FLAC\FLAC.EXE
Additional command line options : -8 -V -T "ARTIST=%artist%" -T "TITLE=%title%" -T "ALBUM=%albumtitle%" -T "DATE=%year%" -T "TRACKNUMBER=%tracknr%" -T "TOTALTRACKS=%numtracks%" -T "GENRE=%genre%" -T "ALBUMARTIST=%albumartist%" -T "ALBUM ARTIST=%albumartist%" -T "COMMENT=EAC Secure Mode, Test & Copy, AccurateRip, FLAC -8" %source%


TOC of the extracted CD

Track | Start | Length | Start sector | End sector
––––––––––––––––––––––––––––-
1 | 0:00.00 | 3:00.01 | 0 | 13500
2 | 3:00.01 | 4:28.10 | 13501 | 33610
3 | 7:28.11 | 3:32.05 | 33611 | 49515
4 | 11:00.16 | 4:34.66 | 49516 | 70131
5 | 15:35.07 | 5:21.03 | 70132 | 94209
6 | 20:56.10 | 2:12.39 | 94210 | 104148
7 | 23:08.49 | 2:03.29 | 104149 | 113402
8 | 25:12.03 | 5:43.00 | 113403 | 139127
9 | 30:55.03 | 4:40.36 | 139128 | 160163
10 | 35:35.39 | 5:00.72 | 160164 | 182735


Track 1

Filename F:\~ EAC Rips\01 - Sons Of Salem.wav

Pre-gap length 0:00:02.00

Peak level 98.6 %
Extraction speed 2.9 X
Track quality 100.0 %
Test CRC 5D90ED45
Copy CRC 5D90ED45
Track not present in AccurateRip database
Copy OK

Track 2

Filename F:\~ EAC Rips\02 - The Wolf Bites Back.wav

Pre-gap length 0:00:00.72

Peak level 98.6 %
Extraction speed 1.1 X
Track quality 100.0 %
Test CRC 1878AC7A
Copy CRC 1878AC7A
Track not present in AccurateRip database
Copy OK

Track 3

Filename F:\~ EAC Rips\03 - Renegade.wav

Pre-gap length 0:00:00.71

Peak level 98.6 %
Extraction speed 1.2 X
Track quality 100.0 %
Test CRC 32EB4C76
Copy CRC 32EB4C76
Track not present in AccurateRip database
Copy OK

Track 4

Filename F:\~ EAC Rips\04 - Swords Of Fire.wav

Pre-gap length 0:00:00.70

Peak level 98.6 %
Extraction speed 1.2 X
Track quality 99.9 %
Test CRC B7B0C3A3
Copy CRC B7B0C3A3
Track not present in AccurateRip database
Copy OK

Track 5

Filename F:\~ EAC Rips\05 - Ghosts Of The Primitives.wav

Pre-gap length 0:00:00.70

Peak level 98.6 %
Extraction speed 1.3 X
Track quality 99.9 %
Test CRC A9349867
Copy CRC A9349867
Track not present in AccurateRip database
Copy OK

Track 6

Filename F:\~ EAC Rips\06 - In Bocca Al Lupo.wav

Pre-gap length 0:00:00.73

Peak level 94.0 %
Extraction speed 1.4 X
Track quality 100.0 %
Test CRC 43DDC0D9
Copy CRC 43DDC0D9
Track not present in AccurateRip database
Copy OK

Track 7

Filename F:\~ EAC Rips\07 - Suicide Division.wav

Pre-gap length 0:00:00.73

Peak level 98.6 %
Extraction speed 1.4 X
Track quality 100.0 %
Test CRC EB279E39
Copy CRC EB279E39
Track not present in AccurateRip database
Copy OK

Track 8

Filename F:\~ EAC Rips\08 - The Stranger.wav

Pre-gap length 0:00:00.71

Peak level 98.6 %
Extraction speed 1.7 X
Track quality 100.0 %
Test CRC 40D4AC5E
Copy CRC 40D4AC5E
Track not present in AccurateRip database
Copy OK

Track 9

Filename F:\~ EAC Rips\09 - Burn The Ships.wav

Pre-gap length 0:00:00.73

Peak level 98.6 %
Extraction speed 1.7 X
Track quality 100.0 %
Test CRC 3D3342F3
Copy CRC 3D3342F3
Track not present in AccurateRip database
Copy OK

Track 10

Filename F:\~ EAC Rips\10 - Zeitgeist.wav

Pre-gap length 0:00:00.74

Peak level 98.6 %
Extraction speed 1.8 X
Track quality 100.0 %
Test CRC 5EF8EC34
Copy CRC 5EF8EC34
Track not present in AccurateRip database
Copy OK


None of the tracks are present in the AccurateRip database

No errors occurred

End of status report

–– CUETools DB Plugin V2.1.6

[CTDB TOCID: 4dvJnbu1xN5PyLWC52lrAFO6nDg-] found
Submit result: 4dvJnbu1xN5PyLWC52lrAFO6nDg- has been confirmed
Track | CTDB Status
1 | (12/12) Accurately ripped
2 | (12/12) Accurately ripped
3 | (12/12) Accurately ripped
4 | (12/12) Accurately ripped
5 | (12/12) Accurately ripped
6 | (12/12) Accurately ripped
7 | (12/12) Accurately ripped
8 | (12/12) Accurately ripped
9 | (12/12) Accurately ripped
10 | (12/12) Accurately ripped


==== Log checksum E16C8FBEBF81429DA718A56D2C4805F15D204F8549DD8323D4AD79DCE7C181E1 ====

Thanks to the Original ripper zapahgary !