Subcategories

Orfeón Donostiarra - Euskal Kantak [Iz Estudioa IZ-382] (1992)

Posted By: luckburz
Orfeón Donostiarra - Euskal Kantak [Iz Estudioa IZ-382] (1992)

Orfeón Donostiarra - Euskal Kantak
EAC+LOG+CUE | FLAC: 203 MB | Full Artwork | 5% Recovery Info
Label/Cat#: Iz Estudioa # IZ-382 | Country/Year: Spain 1992
Genre: Classical, Folk | Style: Vocal, Choir, Basque

MD5 [X] CUE [X] LOG [X] INFO TEXT [X] ARTWORK [X]

selfrip [X] not my rip []

Orfeón Donostiarra - Euskal Kantak [Iz Estudioa IZ-382] (1992)


Exact Audio Copy V1.0 beta 3 from 29. August 2011

EAC extraction logfile from 12. September 2012, 9:55

Orfeón Donostiarra / Euskal Kantak

Used drive : PIONEER BD-RW BDR-206 Adapter: 0 ID: 2

Read mode : Secure
Utilize accurate stream : Yes
Defeat audio cache : Yes
Make use of C2 pointers : No

Read offset correction : 667
Overread into Lead-In and Lead-Out : No
Fill up missing offset samples with silence : Yes
Delete leading and trailing silent blocks : No
Null samples used in CRC calculations : Yes
Used interface : Native Win32 interface for Win NT & 2000

Used output format : User Defined Encoder
Selected bitrate : 1024 kBit/s
Quality : High
Add ID3 tag : Yes
Command line compressor : C:\Program Files\FLAC\flac.exe
Additional command line options : -5 -T "Artist=%artist%" -T "Title=%title%" -T "Album=%albumtitle%" -T "Date=%year%" -T "Tracknumber=%tracknr%" -T "Genre=%genre%" %source% -o %dest%


TOC of the extracted CD

Track | Start | Length | Start sector | End sector
––––––––––––––––––––––––––––-
1 | 0:00.32 | 3:04.05 | 32 | 13836
2 | 3:04.37 | 1:40.08 | 13837 | 21344
3 | 4:44.45 | 3:25.25 | 21345 | 36744
4 | 8:09.70 | 2:36.70 | 36745 | 48514
5 | 10:46.65 | 2:19.47 | 48515 | 58986
6 | 13:06.37 | 2:47.50 | 58987 | 71561
7 | 15:54.12 | 3:21.13 | 71562 | 86649
8 | 19:15.25 | 3:38.02 | 86650 | 103001
9 | 22:53.27 | 2:48.23 | 103002 | 115624
10 | 25:41.50 | 4:28.05 | 115625 | 135729
11 | 30:09.55 | 1:54.67 | 135730 | 144346
12 | 32:04.47 | 2:21.65 | 144347 | 154986
13 | 34:26.37 | 4:56.25 | 154987 | 177211
14 | 39:22.62 | 1:12.05 | 177212 | 182616
15 | 40:34.67 | 3:35.70 | 182617 | 198811
16 | 44:10.62 | 2:12.25 | 198812 | 208736
17 | 46:23.12 | 2:43.30 | 208737 | 220991
18 | 49:06.42 | 2:05.43 | 220992 | 230409
19 | 51:12.10 | 1:45.27 | 230410 | 238311


Range status and errors

Selected range

Filename F:\=== VINYL RIPS ===\=== EAC===\X FRESH RIP\Orfeón Donostiarra - Euskal Kantak.wav

Peak level 100.0 %
Extraction speed 7.1 X
Range quality 100.0 %
Test CRC FB2BC2EC
Copy CRC FB2BC2EC
Copy OK

No errors occurred


AccurateRip summary

Track 1 not present in database
Track 2 not present in database
Track 3 not present in database
Track 4 not present in database
Track 5 not present in database
Track 6 not present in database
Track 7 not present in database
Track 8 not present in database
Track 9 not present in database
Track 10 not present in database
Track 11 not present in database
Track 12 not present in database
Track 13 not present in database
Track 14 not present in database
Track 15 not present in database
Track 16 not present in database
Track 17 not present in database
Track 18 not present in database
Track 19 not present in database

None of the tracks are present in the AccurateRip database

End of status report

–– CUETools DB Plugin V2.1.3

[CTDB TOCID: JKr4EeQA6dPavoa4VV_24ykjS6o-] disk not present in database, Submit result: discs with pregaps not supported in this protocol version


==== Log checksum 39F871B03E7CDAA81BAB871BAA40E4D09E565C69F5FF8EEF317EB129E6E92A17 ====

foobar2000 1.1.14a / Dynamic Range Meter 1.1.1
log date: 2012-09-20 12:35:26

––––––––––––––––––––––––––––––––––––––––
Analyzed: Orfeón Donostiarra / Euskal Kantak
––––––––––––––––––––––––––––––––––––––––

DR Peak RMS Duration Track
––––––––––––––––––––––––––––––––––––––––
DR12 -0.30 dB -19.46 dB 3:04 01-Agur jaunak (J. Olaizola)
DR12 -0.22 dB -18.63 dB 1:40 02-Ama Begira zazu (V. Zubizarreta)
DR14 0.00 dB -20.46 dB 3:25 03-Aldapeko (A. Barja)
DR12 -2.97 dB -19.47 dB 2:37 04-Maite (P. Sorozábal)
DR13 -0.19 dB -18.87 dB 2:20 05-Aunitz Urtez (J. Oñatibia)
DR13 -1.11 dB -21.21 dB 2:48 06-Maitasun atsekabea (J. Guridi)
DR14 -3.46 dB -22.84 dB 3:21 07-Gure deantza (A. Arregi)
DR12 -1.87 dB -19.63 dB 3:38 08-Boga, boga (J. Guridi)
DR13 0.00 dB -19.82 dB 2:48 09-Iru txito (P. Donostia)
DR12 -1.58 dB -20.97 dB 4:28 10-Soule (J. Bello Portu)
DR11 -6.20 dB -24.77 dB 1:55 11-Goiko mendiyan (J. Guridi)
DR13 -2.61 dB -20.37 dB 2:22 12-Orra Mari Domingi (J.M.Usandizaga)
DR12 -1.79 dB -19.18 dB 4:56 13-Maitetxu (F. Alonso)
DR11 -2.73 dB -19.39 dB 1:12 14-Akerra ikusi degu (J. Guridi)
DR12 -1.15 dB -18.98 dB 3:36 15-Haltzak ez du bihotzik (T. Garbizu)
DR13 -5.80 dB -24.41 dB 2:12 16-Festara (J.A. Santisteban)
DR13 -4.30 dB -22.69 dB 2:43 17-Bi eusko abesti (I. Busca Sagastizábal)
DR11 -9.50 dB -24.86 dB 2:06 18-Autxoa seaskan (G. Olaizola)
DR12 -2.41 dB -18.91 dB 1:45 19-Gernikako arbola (E. Gorosarri)
––––––––––––––––––––––––––––––––––––––––

Number of tracks: 19
Official DR value: DR13

Samplerate: 44100 Hz
Channels: 2
Bits per sample: 16
Bitrate: 538 kbps
Codec: FLAC
================================================================================



CD Info:

Orfeón Donostiarra - Euskal Kantak

Label: IZ Estudioa
Catalog#: IZ-382
Format: CD, Album
Country: Spain
Released: 1992
Genre: Classical, Folk
Style: Choir

Orfeón Donostiarra - Euskal Kantak [Iz Estudioa IZ-382] (1992)


Tracklist:

01. Agur jaunak (J. Olaizola) [0:03:04.05]
02. Ama Begira zazu (V. Zubizarreta) [0:01:40.08]
03. Aldapeko (A. Barja) [0:03:25.25]
04. Maite (P. Sorozábal) [0:02:36.70]
05. Aunitz Urtez (J. Oñatibia) [0:02:19.47]
06. Maitasun atsekabea (J. Guridi) [0:02:47.50]
07. Gure deantza (A. Arregi) [0:03:21.13]
08. Boga, boga (J. Guridi) [0:03:38.02]
09. Iru txito (P. Donostia) [0:02:48.23]
10. Soule (J. Bello Portu) [0:04:28.05]
11. Goiko mendiyan (J. Guridi) [0:01:54.67]
12. Orra Mari Domingi (J.M.Usandizaga) [0:02:21.65]
13. Maitetxu (F. Alonso) [0:04:56.25]
14. Akerra ikusi degu (J. Guridi) [0:01:12.05]
15. Haltzak ez du bihotzik (T. Garbizu) [0:03:35.70]
16. Festara (J.A. Santisteban) [0:02:12.25]
17. Bi eusko abesti (I. Busca Sagastizábal) [0:02:43.30]
18. Autxoa seaskan (G. Olaizola) [0:02:05.43]
19. Gernikako arbola (E. Gorosarri) [0:01:45.27]

Director:
SAINZ ALFARO
Soloists:
Ana Salaberria
Jose Antonio Vega

Notes:

Choir music sung in basque language. Further info can be found here: http://www.orfeondonostiarra.org/en/discography/page_3/1992/euskal-kantak-.html

Orfeón Donostiarra - Euskal Kantak [Iz Estudioa IZ-382] (1992)

// classical music \\
// all of my uploads \\
________________

Download:

Filepost FLAC
Filepost Artwork
________________