Subcategories

Orff - Cleveland Orchestra, Tilson Thomas - Carmina Burana (1974, CD reissue 1990, CBS Masterworks # MK 33172)

Posted By: luckburz
Orff - Cleveland Orchestra, Tilson Thomas - Carmina Burana (1974, CD reissue 1990, CBS Masterworks # MK 33172)

Carl Orff - Carmina Burana
The Cleveland Orchestra & Chorus / Michael Tilson Thomas
EAC+LOG+CUE | FLAC: 246 MB | Full Artwork: 101 MB | 5% Recovery Info
Label/Cat#: CBS Masterworks # MK 33172 | Country/Year: Europe 1990, 1974
Genre: Classical | Style: Contemporary, Medieval, Vocal

MD5 [X] CUE [X] LOG [X] INFO TEXT [X] ARTWORK [X]

my rip [X] not my rip []

Orff - Cleveland Orchestra, Tilson Thomas - Carmina Burana (1974, CD reissue 1990, CBS Masterworks # MK 33172)


Exact Audio Copy V1.0 beta 3 from 29. August 2011

EAC extraction logfile from 11. July 2013, 13:39

Cleveland Orchestra & Michael Tilson Thomas / Orff: Carmina Burana

Used drive : PIONEER BD-RW BDR-206 Adapter: 0 ID: 2

Read mode : Secure
Utilize accurate stream : Yes
Defeat audio cache : Yes
Make use of C2 pointers : No

Read offset correction : 667
Overread into Lead-In and Lead-Out : No
Fill up missing offset samples with silence : Yes
Delete leading and trailing silent blocks : No
Null samples used in CRC calculations : Yes
Used interface : Native Win32 interface for Win NT & 2000

Used output format : User Defined Encoder
Selected bitrate : 1024 kBit/s
Quality : High
Add ID3 tag : Yes
Command line compressor : C:\Program Files\FLAC\flac.exe
Additional command line options : -5 -T "Artist=%artist%" -T "Title=%title%" -T "Album=%albumtitle%" -T "Date=%year%" -T "Tracknumber=%tracknr%" -T "Genre=%genre%" %source% -o %dest%


TOC of the extracted CD

Track | Start | Length | Start sector | End sector
––––––––––––––––––––––––––––-
1 | 0:00.00 | 2:24.35 | 0 | 10834
2 | 2:24.35 | 2:44.32 | 10835 | 23166
3 | 5:08.67 | 4:31.68 | 23167 | 43559
4 | 9:40.60 | 2:14.50 | 43560 | 53659
5 | 11:55.35 | 2:29.12 | 53660 | 64846
6 | 14:24.47 | 1:40.65 | 64847 | 72411
7 | 16:05.37 | 3:03.18 | 72412 | 86154
8 | 19:08.55 | 3:25.35 | 86155 | 101564
9 | 22:34.15 | 2:19.20 | 101565 | 112009
10 | 24:53.35 | 3:04.20 | 112010 | 125829
11 | 27:57.55 | 0:49.07 | 125830 | 129511
12 | 28:46.62 | 2:20.70 | 129512 | 140081
13 | 31:07.57 | 3:29.38 | 140082 | 155794
14 | 34:37.20 | 1:45.45 | 155795 | 163714
15 | 36:22.65 | 2:58.00 | 163715 | 177064
16 | 39:20.65 | 4:08.25 | 177065 | 195689
17 | 43:29.15 | 2:49.60 | 195690 | 208424
18 | 46:19.00 | 1:51.10 | 208425 | 216759
19 | 48:10.10 | 1:56.62 | 216760 | 225521
20 | 50:06.72 | 0:52.48 | 225522 | 229469
21 | 50:59.45 | 0:52.07 | 229470 | 233376
22 | 51:51.52 | 2:35.40 | 233377 | 245041
23 | 54:27.17 | 2:18.60 | 245042 | 255451
24 | 56:46.02 | 0:44.58 | 255452 | 258809
25 | 57:30.60 | 2:00.40 | 258810 | 267849
26 | 59:31.25 | 2:29.00 | 267850 | 279024


Range status and errors

Selected range

Filename F:\=== VINYL RIPS ===\=== EAC===\X FRESH RIP\Orff- leveland Orchestra, Tilson Thomas - Carmina Burana.wav

Peak level 88.3 %
Extraction speed 1.8 X
Range quality 100.0 %
Copy CRC 7AE238D3
Copy OK

No errors occurred


AccurateRip summary

Track 1 accurately ripped (confidence 4) [65843170] (AR v1)
Track 2 accurately ripped (confidence 4) [C1B4C5C7] (AR v1)
Track 3 accurately ripped (confidence 4) [EE4D48B3] (AR v1)
Track 4 accurately ripped (confidence 4) [B0CB5C59] (AR v1)
Track 5 accurately ripped (confidence 4) [E90EBAEC] (AR v1)
Track 6 accurately ripped (confidence 4) [6769EF34] (AR v1)
Track 7 accurately ripped (confidence 4) [C67D7775] (AR v1)
Track 8 accurately ripped (confidence 4) [862F194F] (AR v1)
Track 9 accurately ripped (confidence 4) [8E862062] (AR v1)
Track 10 accurately ripped (confidence 3) [AE396854] (AR v1)
Track 11 accurately ripped (confidence 3) [24630351] (AR v1)
Track 12 accurately ripped (confidence 3) [72818B59] (AR v1)
Track 13 accurately ripped (confidence 3) [DD9BE162] (AR v1)
Track 14 accurately ripped (confidence 3) [126B7A23] (AR v1)
Track 15 accurately ripped (confidence 3) [D7563F10] (AR v1)
Track 16 accurately ripped (confidence 3) [F546D165] (AR v1)
Track 17 accurately ripped (confidence 3) [A84D9EC0] (AR v1)
Track 18 accurately ripped (confidence 3) [DD499B8A] (AR v1)
Track 19 accurately ripped (confidence 3) [34BB33CC] (AR v1)
Track 20 accurately ripped (confidence 3) [715F6DA9] (AR v1)
Track 21 accurately ripped (confidence 3) [F87D5C69] (AR v1)
Track 22 accurately ripped (confidence 3) [C27A186C] (AR v1)
Track 23 accurately ripped (confidence 2) [B1B0B030] (AR v1)
Track 24 accurately ripped (confidence 2) [9006AA8E] (AR v1)
Track 25 accurately ripped (confidence 2) [33F8492F] (AR v1)
Track 26 accurately ripped (confidence 2) [0A85486B] (AR v1)

All tracks accurately ripped

End of status report

–– CUETools DB Plugin V2.1.3

[CTDB TOCID: dzx6u1ImQJ1Xk5F7XDpOA1jpPak-] found, Submit result: dzx6u1ImQJ1Xk5F7XDpOA1jpPak- has been confirmed
[e9b9eee8] (4/4) Accurately ripped


==== Log checksum CAB968E2B92398491E2663251DE02A1D81B655F5C67DD1C79DBC12EE57C332C2 ====

foobar2000 1.1.14a / Dynamic Range Meter 1.1.1
log date: 2013-07-16 22:17:44

––––––––––––––––––––––––––––––––––––––––
Analyzed: Cleveland Orchestra & Michael Tilson Thomas / Orff: Carmina Burana
––––––––––––––––––––––––––––––––––––––––

DR Peak RMS Duration Track
––––––––––––––––––––––––––––––––––––––––
DR12 -2.18 dB -19.06 dB 2:24 01-Fortuna Imperatrix Mundi | 1 'O Fortuna'
DR12 -3.91 dB -21.61 dB 2:44 02-Fortuna Imperatrix Mundi | 2 'Fortune plango vulnera'
DR19 -9.96 dB -37.62 dB 4:32 03-I. Primo vere | 1 'Veris leta facies'
DR15 -14.87 dB -34.64 dB 2:15 04-I. Primo vere | 2 'Omnia sol temperat'
DR12 -4.90 dB -22.90 dB 2:29 05-I. Primo vere | 3 'Ecce gratum'
DR13 -1.16 dB -21.98 dB 1:41 06-I. Uf dem anger | 1 Tanz
DR14 -8.28 dB -28.66 dB 3:03 07-I. Uf dem anger | 2 'Floret silva'
DR13 -12.31 dB -33.55 dB 3:25 08-I. Uf dem anger | 3 'Chramer, gip die varwe mir'
DR12 -23.71 dB -39.65 dB 2:19 09-I. Uf dem anger | 4 Reie
DR14 -2.27 dB -22.46 dB 3:04 10-I. Uf dem anger | 4 'Swaz hie gat umbe' - 'Chume, chum geselle min' - 'Swaz h…
DR12 -1.49 dB -19.01 dB 0:49 11-I. Uf dem anger | 6 'Were diu werlt alle min'
DR13 -3.92 dB -24.94 dB 2:21 12-II. In Taberna | 1 'Estuans interius'
DR16 -5.07 dB -27.26 dB 3:30 13-II. In Taberna | 2 'Olim lacus colueram'
DR13 -1.70 dB -22.40 dB 1:46 14-II. In Taberna | 3 'Ego sum abbas'
DR13 -1.97 dB -21.94 dB 2:58 15-II. In Taberna | 4 'In taberna quando sumus'
DR15 -13.89 dB -38.76 dB 4:08 16-III. Cour d'amours | 1 'Amor volat undique'
DR13 -16.61 dB -34.35 dB 2:50 17-III. Cour d'amours | 2 'Dies, nox et omnia'
DR14 -9.21 dB -31.52 dB 1:51 18-III. Cour d'amours | 3 'Stetit puella'
DR12 -8.81 dB -24.83 dB 1:57 19-III. Cour d'amours | 4 'Circa mea pectora'
DR13 -13.33 dB -32.51 dB 0:53 20-III. Cour d'amours | 5 'Si puer cum puellula'
DR11 -6.09 dB -22.24 dB 0:52 21-III. Cour d'amours | 6 'Veni, veni, venias'
DR14 -12.44 dB -31.39 dB 2:36 22-III. Cour d'amours | 7 'In trutina'
DR13 -5.77 dB -22.95 dB 2:19 23-III. Cour d'amours | 8 'Tempus est iocundum'
DR10 -14.95 dB -29.65 dB 0:45 24-III. Cour d'amours | 9 'Dulcissime'
DR12 -2.09 dB -17.46 dB 2:01 25-Blanziflor et Helena | 'Ave formosissima'
DR11 -1.08 dB -18.38 dB 2:29 26-Fortuna Imperatrix Mundi | 'O Fortuna' [bis]
––––––––––––––––––––––––––––––––––––––––

Number of tracks: 26
Official DR value: DR13

Samplerate: 44100 Hz
Channels: 2
Bits per sample: 16
Bitrate: 528 kbps
Codec: FLAC
================================================================================



CD Info:

Carl Orff - Carmina Burana

The Cleveland Orchestra & Chorus / Michael Tilson Thomas

Label: CBS Masterworks
Catalog#: MK 33172
Format: CD, Album, Reissue
Country: Europe
Released: 25 Oct 1990, 1974
Genre: Classical
Style: Contemporary, Medieval

Tracklist:

Fortuna Imperatrix Mundi
1 O Fortuna 2:24
2 Fortune Plango Vulnera 2:44
I. Primo Vere
3 Veris Leta Facies 4:32
4 Omnia Sol Temperat 2:15
5 Ecce Gratum 2:29
Uf Dem Anger
6 Tanz 1:41
7 Floret Silva 3:03
8 Chramer, Gip Die Varwe Mir 3:25
9 Reie 2:19
10 Swaz Hie Gat Umbe - Chume, Chum, Geselle Min - Swz Hie Gat Umbe 3:04
11 Were Diu Werlt Alle Min 0:49
II. In Taberna
12 Estuans Interius 2:21
13 Olim Lacus Colueram 3:30
14 Ego Sum Abbas 1:46
15 In Taberna Quando Sumus 2:58
III. Cour D'Amours
16 Amor Volat Undique 4:08
17 Dies, Nox Et Omnia 2:50
18 Stetit Puella 1:51
19 Circa Mea Pectora 1:57
20 Si Puer Cum Puellula 0:53
21 Veni, Veni, Venias 0:52
22 In Trutina 2:36
23 Tempus Est Iocundum 2:19
24 Dulcissime 0:45
Blanziflor Et Helena
25 Ave Formosissima 2:01
Fortuna Imperatrix Mundi
26 O Fortuna 2:28

Credits

Baritone Vocals – Peter Binder
Choir – Cleveland Orchestra Chorus, The
Chorus Master – Robert Page
Composed By – Carl Orff
Leader – Michael Tilson Thomas
Orchestra – Cleveland Orchestra
Soprano Vocals – Judith Blegen
Tenor Vocals – Kenneth Riegel

This is a terrifically exciting performance of Orff's popular chestnut. Tempos are swift, from the opening "O fortuna" onward. The soloists are uniformly excellent, especially Judith Blegen, whose "In trutina" remains one of the most beautiful ever recorded. Robert Page's Cleveland Orchestra Chorus sings with musicality, enthusiasm, and superb discipline. Of the composer's Bavarian roots and earthy humor there's nary a shred. This is Orff seen through the lens of Stravinsky's Les Noces. Michael Tilson Thomas hammers home the work's repetitive rhythms with obsessive, mechanical precision, aided by playing of characteristic brilliance and transparency from the Cleveland Orchestra. It is certainly a legitimate view of the work, but one about as far removed from Jochum's warmth and folksiness (DG) as Cleveland is from Munich. The sonics, multi-miked to the hilt and originally designed to present a different placement of each individual number, may strike your ears as overly processed (big surprise)–but they actually support the interpretation. In sum–an unusual and extreme rendition, really well done.

–David Hurwitz, ClassicsToday.com

Orff - Cleveland Orchestra, Tilson Thomas - Carmina Burana (1974, CD reissue 1990, CBS Masterworks # MK 33172)


all of my uploads in my blog
________________

NITROFLARE
Music | | Artwork

________________
________________

FILEPOST
Music | | Artwork

________________