Subcategories

Orff - ASO, Runnicles - Carmina Burana (2001) {Hybrid-SACD // EAC Rip} [Repost]

Posted By: luckburz
Orff - ASO, Runnicles - Carmina Burana (2001) {Hybrid-SACD // EAC Rip} [Repost]

Carl Orff - Carmina Burana
Atlanta Symphony Orchestra & Chorus / Donal Runnicles
EAC+LOG+CUE | FLAC: 220 MB | Full Artwork | 5% Recovery Info
Label/Cat#: Telarc # SACD-60575 | Country/Year: US 2001
Genre: Classical | Style: Contemporary / Medieaval

MD5 [X] CUE [X] LOG [X] INFO TEXT [X] ARTWORK [X]

selfrip [X] not my rip []

Orff - ASO, Runnicles - Carmina Burana (2001) {Hybrid-SACD // EAC Rip} [Repost]


EAC extraction logfile from 23. April 2007, 1:25 for CD
Runnicles, Donald (Conductor), Atlanta Symphony Orchestra And Chorus / Carmina Burana

Used drive : ASUS CB-5216A Adapter: 0 ID: 1
Read mode : Secure with NO C2, accurate stream, disable cache
Combined read/write offset correction : 6
Overread into Lead-In and Lead-Out : No

Used output format : Internal WAV Routines
44.100 Hz; 16 Bit; Stereo

Other options :
Fill up missing offset samples with silence : Yes
Delete leading and trailing silent blocks : No
Installed external ASPI interface


Range status and errors
Selected range
Filename H:\Relise\Runnicles, Donald (Conductor), Atlanta Symphony Orchestra And Chorus - Carmina Burana.wav

Peak level 100.0 %
Range quality 99.9 %
CRC E3331B25
Copy OK

No errors occured

End of status report

auCDtect: CD records authenticity detector, version 0.8.2
Copyright © 2004 Oleg Berngardt. All rights reserved.
Copyright © 2004 Alexander Djourik. All rights reserved.

Detect mode (0..40 with 0 = most accurate): 8 (default)


––––––––––––––––––––––––––––––
[Runnicles, Donald (Conductor), Atlanta Symphony Orchestra And Chorus - Carmina Burana.wav]
Detected average hi-boundary frequency: 2.032008e+004 Hz
Detected average lo-boundary frequency: 1.231137e+004 Hz
Detected average hi-cut frequency: 1.988583e+004 Hz
Detected average lo-cut frequency: 8.068270e+003 Hz
Maximum probablis boundary frequency: 2.189100e+004 Hz
Coefficient of nonlinearity of a phase: 1.707281e+000
First order smothness: 3.846333e-001
Second order smothness: 6.244745e-001
––––––––––––––––––––––––––––––
This track looks like CDDA with probability 76%.

foobar2000 1.1.14a / Dynamic Range Meter 1.1.1
log date: 2012-11-26 20:37:15

––––––––––––––––––––––––––––––––––––––––
Analyzed: Runnicles, Donald (Conductor), Atlanta Symphony Orchestra And Chorus / Carmina Burana
––––––––––––––––––––––––––––––––––––––––

DR Peak RMS Duration Track
––––––––––––––––––––––––––––––––––––––––
DR13 0.00 dB -17.09 dB 2:26 01-O Fortuna
DR13 -2.57 dB -22.19 dB 2:33 02-Fortune plango vulnera
DR17 -15.97 dB -39.70 dB 4:05 03-Veris leta facies
DR15 -16.32 dB -39.14 dB 2:21 04-Omnia sol temperat
DR12 -1.53 dB -20.05 dB 2:35 05-Ecce gratum
DR15 -0.30 dB -25.31 dB 3:21 06-Tanz
DR14 -8.62 dB -29.36 dB 1:40 07-Floret silva nobilis
DR16 -12.65 dB -34.38 dB 3:45 08-Chramer, gip die varwe mir
DR16 -1.22 dB -25.55 dB 5:16 09-Reie (Orchestra) and Songs
DR13 0.00 dB -17.70 dB 0:57 10-Were diu werit alle min
DR14 -3.41 dB -24.96 dB 2:11 11-Estuans interius
DR16 -7.03 dB -28.96 dB 3:29 12-Olim lacus colueram
DR15 0.00 dB -20.97 dB 1:22 13-Ego sum abbas
DR13 0.00 dB -18.29 dB 3:05 14-In taberna quando sumus
DR15 -17.97 dB -39.20 dB 3:10 15-Amor volat undique
DR14 -17.16 dB -38.17 dB 2:18 16-Dies, nox et omnia
DR12 -19.64 dB -37.22 dB 1:48 17-Stetit puella
DR14 -3.90 dB -24.65 dB 1:52 18-Circa mea pectora
DR13 -10.15 dB -31.25 dB 0:51 19-Si puer cum puellula
DR12 -4.19 dB -23.29 dB 0:57 20-Veni, veni, venias
DR13 -17.96 dB -38.02 dB 1:58 21-In trutina
DR14 0.00 dB -21.49 dB 2:19 22-Tempus est iocundum
DR10 -13.15 dB -27.54 dB 0:48 23-Dulcissime
DR13 0.00 dB -15.27 dB 1:58 24-Ave formosissima
DR12 0.00 dB -16.98 dB 2:37 25-O Fortuna
––––––––––––––––––––––––––––––––––––––––

Number of tracks: 25
Official DR value: DR14

Samplerate: 44100 Hz
Channels: 2
Bits per sample: 16
Bitrate: 516 kbps
Codec: Monkey's Audio
================================================================================



CD Info:

Carl Orff - Atlanta Symphony Orchestra & Chorus / Donal Runnicles - Carmina Burana

Label: Telarc
Catalog#: SACD-60575
Format: CD, Album
Country: US
Released: 2001
Genre: Classical
Style: Contemporary / Medieaval

Tracklist:

1 - O Fortuna 2:26
2 - Fortune plango vulnera 2:33
3 - Veris leta facies 4:05
4 - Omnia sol temperat 2:21
5 - Ecce gratum 2:35
6 - Tanz 3:21
7 - Floret silva nobilis 1:40
8 - Chramer, gip die varwe mir 3:45
9 - Reie (Orchestra) and Songs 5:16
10 - Were diu werit alle min 0:57
11 - Estuans interius 2:11
12 - Olim lacus colueram 3:29
13 - Ego sum abbas 1:22
14 - In taberna quando sumus 3:05
15 - Amor volat undique 3:10
16 - Dies, nox et omnia 2:18
17 - Stetit puella 1:48
18 - Circa mea pectora 1:52
19 - Si puer cum puellula 0:51
20 - Veni, veni, venias 0:57
21 - In trutina 1:58
22 - Tempus est iocundum 2:19
23 - Dulcissime 0:48
24 - Ave formosissima 1:58
25 - O Fortuna 2:37

Hei-Kyung Hong, soprano
Stanford Olsen, tenor
Earle Patriarco, baritone

Gwinnett Young Singers

Orff - ASO, Runnicles - Carmina Burana (2001) {Hybrid-SACD // EAC Rip} [Repost]


Last Saturday my wife and I schlepped off to Boston for our second concert of the season. The first half of the concert was devoted to Sequentia's take on the source material for Orff's Carmina Burana. It was enlightening if not exciting.

The Orff on the other hand was a real eye-opener for me. I had never before heard the thing live. Rafael Frühbeck de Burgos conducted the BSO and our soloists were Norah Amsellem, soprano; William Ferguson, tenor and Christian Gerhaher, baritone. They were magnificent. The thing that really caught my attention however was the orchestra. There were TWO concert grand pianos! Also a powerful percussion battery - although unlike Gustav Mahler, Orff was content with one set of Tympani.

The Tanglewood Festival Chorus is a large body of singers. All alone, they can be quite loud. With an orchestra like this one however, certain passages were ear-splitting even way back in the center section of the second balcony! Loud it was, and unusual for the Boston Symphony, there were some shrill moments. Orff planned them that way. But from the outset I must say that the magnificence of the sound was in the height and breadth of what we might call the sound picture. There was a sense of power and depth that even for Symphony Hall is unusual. This was the genius of Carl Orff at work.

I had not heard this Atlanta Symphony recording for a couple years now. Prompted by the concert experience I listened to it yesterday. I allowed myself the guilty pleasure of playing this thing LOUD! I experienced the same shrillness as in the live concert and in exactly the same passages. There is something about a piccolo doubling with a struck piece of steel!

In every department, by my standards of measure, which allow much leeway to interpretive aspects of any performance, but are like an on-off switch for sound quality, this recording is magnificent! This is one of the most realistic sounding recordings I think I ever heard. The sound stage produced in my listening room rivaled that of the live event in Symphony Hall. That, folks, is really saying something! The soloists were truly satisfying (characterful). They and the chorus, and children's chorus met every demand with aplomb. I guess for me the soprano should be singled out for special mention. She soars effortlessly (or so it seems) to the highest notes and with extraordinarily sweet tone delivers the climax of the work beautifully.

The breadth, depth, and height of the sound stage presented by the multi-channel "surround" mix delivers an enormous portion of the experience of a live performance of a splendid orchestra, with splendid soloists in a splendid hall. You really are "surrounded" by the ambient signature of the Atlanta concert hall. Orff's percussive writing, as well as the innovative writing for winds and the large chorus is wonderfully captured with huge impact. I can ask for nothing more! sa-cd.net

Thanks to Nikanuf!


Orff - ASO, Runnicles - Carmina Burana (2001) {Hybrid-SACD // EAC Rip} [Repost]

// classical music \\
// all of my uploads \\
________________

Download:

Filepost FLAC & ARTWORK
________________