Subcategories

Original Broadway Cast Recording - Hamilton (2015) {2CD Set Atlantic 551093-2}

Posted By: ruskaval
Original Broadway Cast Recording - Hamilton (2015) {2CD Set Atlantic 551093-2}

Original Broadway Cast Recording - Hamilton (2015) {2CD Set Atlantic 551093-2}
EAC rip (secure mode) | FLAC (tracks)+CUE+LOG -> 838 Mb | MP3 @320 -> 338 Mb
Full Artwork @ 300 dpi (png) -> 442 Mb | 5% repair rar
© 2015 Atlantic | 551093-2
Stage & Screen / Classical / Rap / Cast Recordings / Show / Musical Theater

"Hamilton" - which transferred to Broadway following a sold-out run at The Public Theater in NYC - is the acclaimed new musical about the scrappy young immigrant Alexander Hamilton, the $10 Founding Father who forever changed America with his revolutionary ideas and actions. During his life cut too short, he served as George Washington's chief aide, was the first Treasury Secretary of the United States, a loving husband and father, despised by his fellow Founding Fathers, and shot to death by Aaron Burr in a legendary duel.

The "HAMILTON (ORIGINAL BROADWAY CAST RECORDING)" is executive produced by Ahmir "Questlove" Thompson and Tariq "Black Thought" Trotter, founding members of the Grammy Award winning hip-hop band, The Roots. "HAMILTON" has book, music and lyrics by Tony and Grammy Award-winning composer Lin Manuel Miranda, who also plays the title role. The musical is directed by Thomas Kail, with choreography by Andy Blankenbuehler and music direction and orchestrations by Alex Lacamoire. "HAMILTON" is inspired by Ron Chernow's biography "Alexander Hamilton."
Original Broadway Cast Recording - Hamilton (2015) {2CD Set Atlantic 551093-2}

Inspired by the Ron Chernow biography, Hamilton: An American Musical is an innovative, hip-hop-charged stage musical about U.S. founding father Alexander Hamilton. That's right, hip-hop (and ethnically diverse casting) meet the 18th century. Its creator, book writer, composer-lyricist, and lead actor, Lin-Manuel Miranda, had his Broadway breakthrough in 2008 with Into the Heights, a musical about the Latino-American Manhattan neighborhood of Washington Heights that also incorporated rap music into its rambunctious songbook. Miranda won a Tony and a Grammy for his songwriting for the Best Musical winner. With Hamilton, he draws on rap, contemporary R&B, pop, and classic show tunes for a dynamic style that isn't just ambitious but accessible and catchy – and there's plenty of conventional melody. The well-over-two-hour production does a good job of balancing tone and styles, so for those who find rap, or rather theater balladry, something to be endured, relief is just around the corner. Recorded with care over several days instead of the usual single recording session, and with production oversight by Questlove and Black Thought of the Roots, the cast recording opens with alternately rapped and sung exposition on "Alexander Hamilton." Sure, the concept of rapping historical figures can take some adjusting to, but where vocals are concerned, rapping isn't that much different from recitative (between arias) in opera, chant, or any other type of rhythmic speaking ("Ya Got Trouble" from The Music Man). It's the decidedly non-period R&B/21st century pop-flavored music and modern vernacular (with explicit language) in the distant setting that takes some suspension of disbelief.

Original Broadway Cast Recording - Hamilton (2015) {2CD Set Atlantic 551093-2}


Once that happens, and the listener is confronted with the device quickly and impressively, it's smooth sailing. The rhythm and word plays are at such high levels – lyrics are often delivered rapid-fire with interruptions occurring seamlessly in rhyme and in tempo – it's hard not to be won over pretty much from the start, especially with lyrics like the sung political advice, "Talk less, smile more/Don't let them know what you're against or for" and meticulous, smile-inducing rap rhymes ("skill with the quill," etc.). Hamilton's verbosity is a running joke in the show, which comes to an apex in the "Cabinet Battles," exercises in rhetorical grandiloquence executed via a rap smackdown between Hamilton (Miranda) and, among others, Thomas Jefferson (Daveed Diggs). Another standout is the tender pop ballad "Wait for It" by Leslie Odom, Jr. as Aaron Burr, and the cast. If there's a significant knock on the show, it's that there's so much information communicated in the songs – facts, reading of documents, summaries of events – it would certainly be tedious if not accompanied by an unusually entertaining presentation, and some will decide that it still is. However, given the musical's fairly radical rendering and the limited access to the show – any Broadway show – this recording seems a vital one, and time will tell if the musical is a watershed in big-budget musical theater.
Original Broadway Cast Recording - Hamilton (2015) {2CD Set Atlantic 551093-2}


Performers

Alexander Hamilton (Lin-Manuel Miranda)
Aaron Burr (Leslie Odom Jr.)
George Washington (Christopher Jackson)
Peggy (Jasmine Cephas Jones)
King George (Jonathan Groff)
Thomas Jefferson (Daveed Diggs)
James Madison (Okieriete Onaodowan)
Angelica Schuyler (Renйe Elise Goldsberry)
Maria Reynolds (Jasmine Cephas Jones)
Eliza Hamilton (Phillipa Soo)

Track Listing

CD1


01 - Alexander Hamilton
02 - Aaron Burr, Sir
03 - My Shot
04 - The Story of Tonight
05 - The Schuyler Sisters
06 - Farmer Refuted
07 - You'll Be Back
08 - Right Hand Man
09 - A Winter's Ball
10 - Helpless
11 - Satisfied
12 - The Story of Tonight (Reprise)
13 - Wait For It
14 - Stay Alive
15 - Ten Duel Commandments
16 - Meet Me Inside
17 - That Would Be Enough
18 - Guns and Ships
19 - History Has Its Eyes On You
20 - Yorktown (The World Turned Upside Down)
21 - What Comes Next
22 - Dear Theodosia
23 - Non-Stop

Original Broadway Cast Recording - Hamilton (2015) {2CD Set Atlantic 551093-2}


CD2

01 - What'd I Miss
02 - Cabinet Battle No. 1
03 - Take A Break
04 - Say No To This
05 - The Room Where It Happens
06 - Schuyler Defeated
07 - Cabinet Battle No. 2
08 - Washington On Your Side
09 - One Last Time
10 - I Know Him
11 - The Adams Administration
12 - We Know
13 - Hurricane
14 - The Reynolds Pamphlet
15 - Burn
16 - Blow Us All Away
17 - Stay Alive (Reprise)
18 - It's Quiet Uptown
19 - The Election of 1800
20 - Your Obedient Servant
21 - Best of Wives and Best of Women
22 - The World Was Wide Enough
23 - Who Lives, Who Dies, Who Tells Your Story

Original Broadway Cast Recording - Hamilton (2015) {2CD Set Atlantic 551093-2}


Exact Audio Copy V1.3 from 2. September 2016

EAC extraction logfile from 15. January 2017, 15:14

Original Broadway Cast / Hamilton (CD1)

Used drive : ASUS DRW-24B1ST i Adapter: 1 ID: 0

Read mode : Secure
Utilize accurate stream : Yes
Defeat audio cache : Yes
Make use of C2 pointers : No

Read offset correction : 6
Overread into Lead-In and Lead-Out : No
Fill up missing offset samples with silence : Yes
Delete leading and trailing silent blocks : No
Null samples used in CRC calculations : Yes
Used interface : Native Win32 interface for Win NT & 2000
Gap handling : Appended to previous track

Used output format : User Defined Encoder
Selected bitrate : 128 kBit/s
Quality : High
Add ID3 tag : No
Command line compressor : C:\Program Files (x86)\Exact Audio Copy\Flac\flac.exe
Additional command line options : -8 -V -T "ARTIST=%artist%" -T "TITLE=%title%" -T "ALBUM=%albumtitle%" -T "DATE=%year%" -T "TRACKNUMBER=%tracknr%" -T "TOTALTRACKS=%numtracks%" -T "GENRE=%genre%" -T "ALBUMARTIST=%albumartist%" -T "ALBUM ARTIST=%albumartist%" -T "COMMENT=EAC Secure Mode, Test & Copy, AccurateRip, FLAC -8" %source%


TOC of the extracted CD

Track | Start | Length | Start sector | End sector
––––––––––––––––––––––––––––-
1 | 0:00.00 | 3:56.55 | 0 | 17754
2 | 3:56.55 | 2:36.47 | 17755 | 29501
3 | 6:33.27 | 5:33.12 | 29502 | 54488
4 | 12:06.39 | 1:31.73 | 54489 | 61386
5 | 13:38.37 | 3:06.41 | 61387 | 75377
6 | 16:45.03 | 1:52.56 | 75378 | 83833
7 | 18:37.59 | 3:28.24 | 83834 | 99457
8 | 22:06.08 | 5:21.52 | 99458 | 123584
9 | 27:27.60 | 1:09.68 | 123585 | 128827
10 | 28:37.53 | 4:09.57 | 128828 | 147559
11 | 32:47.35 | 5:29.17 | 147560 | 172251
12 | 38:16.52 | 1:55.66 | 172252 | 180942
13 | 40:12.43 | 3:13.57 | 180943 | 195474
14 | 43:26.25 | 2:39.07 | 195475 | 207406
15 | 46:05.32 | 1:46.49 | 207407 | 215405
16 | 47:52.06 | 1:23.47 | 215406 | 221677
17 | 49:15.53 | 2:58.34 | 221678 | 235061
18 | 52:14.12 | 2:07.43 | 235062 | 244629
19 | 54:21.55 | 1:37.04 | 244630 | 251908
20 | 55:58.59 | 4:02.44 | 251909 | 270102
21 | 60:01.28 | 1:39.26 | 270103 | 277553
22 | 61:40.54 | 3:04.00 | 277554 | 291353
23 | 64:44.54 | 6:25.33 | 291354 | 320261


Track 1

Filename D:\_Post\Hamilton\CD1\01 - Alexander Hamilton.wav

Pre-gap length 0:00:02.00

Peak level 99.8 %
Extraction speed 4.3 X
Track quality 99.9 %
Test CRC 5A5C807F
Copy CRC 5A5C807F
Accurately ripped (confidence 94) [070D2E34] (AR v2)
Copy OK

Track 2

Filename D:\_Post\Hamilton\CD1\02 - Aaron Burr, Sir.wav

Peak level 99.8 %
Extraction speed 5.2 X
Track quality 100.0 %
Test CRC 973991CD
Copy CRC 973991CD
Accurately ripped (confidence 92) [A0F6A9E5] (AR v2)
Copy OK

Track 3

Filename D:\_Post\Hamilton\CD1\03 - My Shot.wav

Pre-gap length 0:00:00.01

Peak level 99.8 %
Extraction speed 6.2 X
Track quality 100.0 %
Test CRC 64FCBFA1
Copy CRC 64FCBFA1
Accurately ripped (confidence 93) [455AB7E2] (AR v2)
Copy OK

Track 4

Filename D:\_Post\Hamilton\CD1\04 - The Story of Tonight.wav

Pre-gap length 0:00:00.01

Peak level 99.8 %
Extraction speed 3.7 X
Track quality 99.8 %
Test CRC B482779F
Copy CRC B482779F
Accurately ripped (confidence 94) [BE222B5D] (AR v2)
Copy OK

Track 5

Filename D:\_Post\Hamilton\CD1\05 - The Schuyler Sisters.wav

Pre-gap length 0:00:00.01

Peak level 99.8 %
Extraction speed 5.1 X
Track quality 99.9 %
Test CRC 41237815
Copy CRC 41237815
Accurately ripped (confidence 94) [BF0D50B1] (AR v2)
Copy OK

Track 6

Filename D:\_Post\Hamilton\CD1\06 - Farmer Refuted.wav

Pre-gap length 0:00:00.01

Peak level 99.8 %
Extraction speed 6.0 X
Track quality 100.0 %
Test CRC 9A24A164
Copy CRC 9A24A164
Accurately ripped (confidence 94) [C91E2030] (AR v2)
Copy OK

Track 7

Filename D:\_Post\Hamilton\CD1\07 - You'll Be Back.wav

Pre-gap length 0:00:00.01

Peak level 99.8 %
Extraction speed 6.9 X
Track quality 100.0 %
Test CRC 4C5F70EE
Copy CRC 4C5F70EE
Accurately ripped (confidence 93) [56C8680F] (AR v2)
Copy OK

Track 8

Filename D:\_Post\Hamilton\CD1\08 - Right Hand Man.wav

Pre-gap length 0:00:00.01

Peak level 99.8 %
Extraction speed 6.7 X
Track quality 99.9 %
Test CRC 7D9D4EE5
Copy CRC 7D9D4EE5
Accurately ripped (confidence 93) [FCA6B239] (AR v2)
Copy OK

Track 9

Filename D:\_Post\Hamilton\CD1\09 - A Winter's Ball.wav

Pre-gap length 0:00:00.01

Peak level 99.8 %
Extraction speed 5.0 X
Track quality 100.0 %
Test CRC 45097238
Copy CRC 45097238
Accurately ripped (confidence 94) [D30D66A8] (AR v2)
Copy OK

Track 10

Filename D:\_Post\Hamilton\CD1\10 - Helpless.wav

Pre-gap length 0:00:00.01

Peak level 99.8 %
Extraction speed 8.0 X
Track quality 100.0 %
Test CRC 7E2ACF81
Copy CRC 7E2ACF81
Accurately ripped (confidence 94) [CDE7D151] (AR v2)
Copy OK

Track 11

Filename D:\_Post\Hamilton\CD1\11 - Satisfied.wav

Pre-gap length 0:00:00.01

Peak level 99.8 %
Extraction speed 8.4 X
Track quality 100.0 %
Test CRC BB45B843
Copy CRC BB45B843
Accurately ripped (confidence 93) [B4C10483] (AR v2)
Copy OK

Track 12

Filename D:\_Post\Hamilton\CD1\12 - The Story of Tonight (Reprise).wav

Pre-gap length 0:00:00.01

Peak level 99.8 %
Extraction speed 5.4 X
Track quality 99.9 %
Test CRC CE636CD9
Copy CRC CE636CD9
Accurately ripped (confidence 92) [782442FC] (AR v2)
Copy OK

Track 13

Filename D:\_Post\Hamilton\CD1\13 - Wait For It.wav

Pre-gap length 0:00:00.01

Peak level 99.8 %
Extraction speed 8.4 X
Track quality 100.0 %
Test CRC F3E20EFF
Copy CRC F3E20EFF
Accurately ripped (confidence 92) [5D7A4BBA] (AR v2)
Copy OK

Track 14

Filename D:\_Post\Hamilton\CD1\14 - Stay Alive.wav

Pre-gap length 0:00:00.01

Peak level 99.8 %
Extraction speed 8.3 X
Track quality 100.0 %
Test CRC 4EEBCEF6
Copy CRC 4EEBCEF6
Accurately ripped (confidence 92) [AB1B045C] (AR v2)
Copy OK

Track 15

Filename D:\_Post\Hamilton\CD1\15 - Ten Duel Commandments.wav

Pre-gap length 0:00:00.01

Peak level 99.8 %
Extraction speed 7.8 X
Track quality 100.0 %
Test CRC 054CB03C
Copy CRC 054CB03C
Accurately ripped (confidence 95) [0E5E65BB] (AR v2)
Copy OK

Track 16

Filename D:\_Post\Hamilton\CD1\16 - Meet Me Inside.wav

Pre-gap length 0:00:00.01

Peak level 99.8 %
Extraction speed 5.1 X
Track quality 99.8 %
Test CRC 4CE26772
Copy CRC 4CE26772
Accurately ripped (confidence 94) [A325B88E] (AR v2)
Copy OK

Track 17

Filename D:\_Post\Hamilton\CD1\17 - That Would Be Enough.wav

Pre-gap length 0:00:00.01

Peak level 99.8 %
Extraction speed 8.9 X
Track quality 100.0 %
Test CRC 52272009
Copy CRC 52272009
Accurately ripped (confidence 94) [8A71FE5D] (AR v2)
Copy OK

Track 18

Filename D:\_Post\Hamilton\CD1\18 - Guns and Ships.wav

Pre-gap length 0:00:00.01

Peak level 99.8 %
Extraction speed 8.3 X
Track quality 100.0 %
Test CRC 981C4602
Copy CRC 981C4602
Accurately ripped (confidence 95) [4B4B5706] (AR v2)
Copy OK

Track 19

Filename D:\_Post\Hamilton\CD1\19 - History Has Its Eyes On You.wav

Pre-gap length 0:00:00.01

Peak level 99.8 %
Extraction speed 8.0 X
Track quality 100.0 %
Test CRC 8A69DF83
Copy CRC 8A69DF83
Accurately ripped (confidence 92) [7D8C6C89] (AR v2)
Copy OK

Track 20

Filename D:\_Post\Hamilton\CD1\20 - Yorktown (The World Turned Upside Down).wav

Pre-gap length 0:00:00.01

Peak level 99.8 %
Extraction speed 9.7 X
Track quality 100.0 %
Test CRC 7887CCF0
Copy CRC 7887CCF0
Accurately ripped (confidence 94) [EFA5D0B8] (AR v2)
Copy OK

Track 21

Filename D:\_Post\Hamilton\CD1\21 - What Comes Next.wav

Pre-gap length 0:00:00.01

Peak level 99.8 %
Extraction speed 8.1 X
Track quality 100.0 %
Test CRC DBA1A2F3
Copy CRC DBA1A2F3
Accurately ripped (confidence 95) [2644FC33] (AR v2)
Copy OK

Track 22

Filename D:\_Post\Hamilton\CD1\22 - Dear Theodosia.wav

Pre-gap length 0:00:00.01

Peak level 99.8 %
Extraction speed 9.8 X
Track quality 100.0 %
Test CRC 0B14FA1D
Copy CRC 0B14FA1D
Accurately ripped (confidence 95) [0CFB88AB] (AR v2)
Copy OK

Track 23

Filename D:\_Post\Hamilton\CD1\23 - Non-Stop.wav

Pre-gap length 0:00:00.01

Peak level 99.8 %
Extraction speed 9.5 X
Track quality 99.9 %
Test CRC BB0094B4
Copy CRC BB0094B4
Accurately ripped (confidence 95) [54F659B9] (AR v2)
Copy OK


All tracks accurately ripped

No errors occurred

End of status report

–– CUETools DB Plugin V2.1.6

[CTDB TOCID: y.j.tGa0LkthCkoiRtSqHmX7nJI-] found
Submit result: database in readonly state
Track | CTDB Status
1 | (475/500) Accurately ripped, or (19/500) differs in 4 samples @03:56:54-03:56:55
2 | (458/500) Accurately ripped, or (19/500) differs in 332 samples @00:00:00,02:36:46-02:36:47
3 | (460/500) Accurately ripped, or (19/500) differs in 1174 samples @00:00:00,05:33:11-05:33:12
4 | (475/500) Accurately ripped, or (19/500) differs in 843 samples @00:00:00,01:31:72-01:31:73
5 | (475/500) Accurately ripped, or (19/500) differs in 1169 samples @00:00:00,03:06:40-03:06:41
6 | (474/500) Accurately ripped, or (19/500) differs in 765 samples @00:00:00,01:52:55-01:52:56
7 | (460/500) Accurately ripped, or (19/500) differs in 829 samples @00:00:00,03:28:23-03:28:24
8 | (458/500) Accurately ripped, or (19/500) differs in 359 samples @00:00:00,05:21:51-05:21:52
9 | (474/500) Accurately ripped, or (19/500) differs in 1091 samples @00:00:00,01:09:67-01:09:68
10 | (475/500) Accurately ripped, or (19/500) differs in 1176 samples @00:00:00,04:09:56-04:09:57
11 | (459/500) Accurately ripped, or (19/500) differs in 1060 samples @00:00:00
12 | (460/500) Accurately ripped, or (19/500) differs in 274 samples @00:00:00,01:55:65-01:55:66
13 | (460/500) Accurately ripped, or (19/500) differs in 1175 samples @00:00:00,03:13:56-03:13:57
14 | (460/500) Accurately ripped, or (19/500) differs in 1176 samples @00:00:00,02:39:06-02:39:07
15 | (474/500) Accurately ripped, or (19/500) differs in 1172 samples @00:00:00,01:46:48-01:46:49
16 | (476/500) Accurately ripped, or (19/500) differs in 1163 samples @00:00:00
17 | (474/500) Accurately ripped, or (19/500) differs in 287 samples @00:00:00,02:58:33-02:58:34
18 | (475/500) Accurately ripped, or (19/500) differs in 1173 samples @00:00:00,02:07:42-02:07:43
19 | (460/500) Accurately ripped, or (19/500) differs in 1175 samples @00:00:00,01:37:03-01:37:04
20 | (458/500) Accurately ripped, or (19/500) differs in 1166 samples @00:00:00,04:02:43-04:02:44
21 | (474/500) Accurately ripped, or (19/500) differs in 111 samples @00:00:00,01:39:25-01:39:26
22 | (473/500) Accurately ripped, or (19/500) differs in 610 samples @00:00:00,03:03:74-03:04:00
23 | (469/500) Accurately ripped, or (19/500) differs in 1164 samples @00:00:00


==== Log checksum 5352F3AE5B0FD576CA69A3B5C045EF09E83491571BC9D9440BD8782155907D66 ====
=========================
Exact Audio Copy V1.3 from 2. September 2016

EAC extraction logfile from 15. February 2017, 4:11

Original Broadway Cast / Hamilton (CD2)

Used drive : ASUS DRW-24B1ST i Adapter: 1 ID: 0

Read mode : Secure
Utilize accurate stream : Yes
Defeat audio cache : Yes
Make use of C2 pointers : No

Read offset correction : 6
Overread into Lead-In and Lead-Out : No
Fill up missing offset samples with silence : Yes
Delete leading and trailing silent blocks : No
Null samples used in CRC calculations : Yes
Used interface : Native Win32 interface for Win NT & 2000
Gap handling : Appended to previous track

Used output format : User Defined Encoder
Selected bitrate : 128 kBit/s
Quality : High
Add ID3 tag : No
Command line compressor : C:\Program Files (x86)\Exact Audio Copy\Flac\flac.exe
Additional command line options : -8 -V -T "ARTIST=%artist%" -T "TITLE=%title%" -T "ALBUM=%albumtitle%" -T "DATE=%year%" -T "TRACKNUMBER=%tracknr%" -T "TOTALTRACKS=%numtracks%" -T "GENRE=%genre%" -T "ALBUMARTIST=%albumartist%" -T "ALBUM ARTIST=%albumartist%" -T "COMMENT=EAC Secure Mode, Test & Copy, AccurateRip, FLAC -8" %source%


TOC of the extracted CD

Track | Start | Length | Start sector | End sector
––––––––––––––––––––––––––––-
1 | 0:00.00 | 3:56.52 | 0 | 17751
2 | 3:56.52 | 3:35.17 | 17752 | 33893
3 | 7:31.69 | 4:46.37 | 33894 | 55380
4 | 12:18.31 | 4:02.01 | 55381 | 73531
5 | 16:20.32 | 5:18.16 | 73532 | 97397
6 | 21:38.48 | 1:03.42 | 97398 | 102164
7 | 22:42.15 | 2:22.48 | 102165 | 112862
8 | 25:04.63 | 3:01.36 | 112863 | 126473
9 | 28:06.24 | 4:56.29 | 126474 | 148702
10 | 33:02.53 | 1:37.73 | 148703 | 156050
11 | 34:40.51 | 0:54.63 | 156051 | 160163
12 | 35:35.39 | 2:22.04 | 160164 | 170817
13 | 37:57.43 | 2:23.41 | 170818 | 181583
14 | 40:21.09 | 2:08.35 | 181584 | 191218
15 | 42:29.44 | 3:45.18 | 191219 | 208111
16 | 46:14.62 | 2:53.45 | 208112 | 221131
17 | 49:08.32 | 1:51.41 | 221132 | 229497
18 | 50:59.73 | 4:30.13 | 229498 | 249760
19 | 55:30.11 | 3:57.74 | 249761 | 267609
20 | 59:28.10 | 2:30.05 | 267610 | 278864
21 | 61:58.15 | 0:47.70 | 278865 | 282459
22 | 62:46.10 | 5:02.15 | 282460 | 305124
23 | 67:48.25 | 3:37.17 | 305125 | 321416


Track 1

Filename D:\_Post\Hamilton\CD2\01 - What'd I Miss.wav

Pre-gap length 0:00:02.00

Peak level 99.8 %
Extraction speed 1.4 X
Track quality 99.9 %
Test CRC 7DC59C9F
Copy CRC 7DC59C9F
Accurately ripped (confidence 83) [D3B06314] (AR v2)
Copy OK

Track 2

Filename D:\_Post\Hamilton\CD2\02 - Cabinet Battle No. 1.wav

Peak level 99.8 %
Extraction speed 2.0 X
Track quality 100.0 %
Test CRC 1003866D
Copy CRC 1003866D
Accurately ripped (confidence 83) [7D1B0BD5] (AR v2)
Copy OK

Track 3

Filename D:\_Post\Hamilton\CD2\03 - Take A Break.wav

Peak level 99.8 %
Extraction speed 1.8 X
Track quality 99.9 %
Test CRC 70A99820
Copy CRC 70A99820
Accurately ripped (confidence 84) [2D64D59C] (AR v2)
Copy OK

Track 4

Filename D:\_Post\Hamilton\CD2\04 - Say No To This.wav

Peak level 99.8 %
Extraction speed 1.8 X
Track quality 99.9 %
Test CRC EC879EC8
Copy CRC EC879EC8
Accurately ripped (confidence 84) [EDCCD588] (AR v2)
Copy OK

Track 5

Filename D:\_Post\Hamilton\CD2\05 - The Room Where It Happens.wav

Peak level 99.8 %
Extraction speed 2.7 X
Track quality 100.0 %
Test CRC 6BAE0B1C
Copy CRC 6BAE0B1C
Accurately ripped (confidence 85) [50EA0118] (AR v2)
Copy OK

Track 6

Filename D:\_Post\Hamilton\CD2\06 - Schuyler Defeated.wav

Peak level 99.8 %
Extraction speed 2.0 X
Track quality 100.0 %
Test CRC 6A6DB701
Copy CRC 6A6DB701
Accurately ripped (confidence 85) [B631BEB3] (AR v2)
Copy OK

Track 7

Filename D:\_Post\Hamilton\CD2\07 - Cabinet Battle No. 2.wav

Peak level 99.8 %
Extraction speed 2.6 X
Track quality 100.0 %
Test CRC 6E451CE9
Copy CRC 6E451CE9
Accurately ripped (confidence 83) [F4966500] (AR v2)
Copy OK

Track 8

Filename D:\_Post\Hamilton\CD2\08 - Washington On Your Side.wav

Peak level 99.8 %
Extraction speed 2.8 X
Track quality 100.0 %
Test CRC 88BF9F34
Copy CRC 88BF9F34
Accurately ripped (confidence 83) [45AC380E] (AR v2)
Copy OK

Track 9

Filename D:\_Post\Hamilton\CD2\09 - One Last Time.wav

Peak level 99.8 %
Extraction speed 3.1 X
Track quality 100.0 %
Test CRC 18814F11
Copy CRC 18814F11
Accurately ripped (confidence 85) [50730DE2] (AR v2)
Copy OK

Track 10

Filename D:\_Post\Hamilton\CD2\10 - I Know Him.wav

Peak level 99.8 %
Extraction speed 2.6 X
Track quality 100.0 %
Test CRC CD44A62F
Copy CRC CD44A62F
Accurately ripped (confidence 85) [FBBE6F52] (AR v2)
Copy OK

Track 11

Filename D:\_Post\Hamilton\CD2\11 - The Adams Administration.wav

Peak level 99.8 %
Extraction speed 2.1 X
Track quality 100.0 %
Test CRC 9A7EE955
Copy CRC 9A7EE955
Accurately ripped (confidence 85) [E77A7E4C] (AR v2)
Copy OK

Track 12

Filename D:\_Post\Hamilton\CD2\12 - We Know.wav

Peak level 99.8 %
Extraction speed 1.9 X
Track quality 99.9 %
Test CRC 6A3A7FF5
Copy CRC 6A3A7FF5
Accurately ripped (confidence 85) [5655228C] (AR v2)
Copy OK

Track 13

Filename D:\_Post\Hamilton\CD2\13 - Hurricane.wav

Peak level 99.8 %
Extraction speed 3.0 X
Track quality 100.0 %
Test CRC B9C4ACBE
Copy CRC B9C4ACBE
Accurately ripped (confidence 85) [575DF823] (AR v2)
Copy OK

Track 14

Filename D:\_Post\Hamilton\CD2\14 - The Reynolds Pamphlet.wav

Peak level 99.8 %
Extraction speed 1.8 X
Track quality 99.9 %
Test CRC 23E8A4AA
Copy CRC 23E8A4AA
Accurately ripped (confidence 85) [9D4BC8E3] (AR v2)
Copy OK

Track 15

Filename D:\_Post\Hamilton\CD2\15 - Burn.wav

Peak level 99.8 %
Extraction speed 3.4 X
Track quality 100.0 %
Test CRC 2FE6A80A
Copy CRC 2FE6A80A
Accurately ripped (confidence 83) [C54E2C6C] (AR v2)
Copy OK

Track 16

Filename D:\_Post\Hamilton\CD2\16 - Blow Us All Away.wav

Peak level 99.8 %
Extraction speed 2.2 X
Track quality 99.9 %
Test CRC B5295324
Copy CRC B5295324
Accurately ripped (confidence 83) [F7A4943A] (AR v2)
Copy OK

Track 17

Filename D:\_Post\Hamilton\CD2\17 - Stay Alive (Reprise).wav

Peak level 99.8 %
Extraction speed 2.0 X
Track quality 99.9 %
Test CRC 7157C3BF
Copy CRC 7157C3BF
Accurately ripped (confidence 84) [20560522] (AR v2)
Copy OK

Track 18

Filename D:\_Post\Hamilton\CD2\18 - It's Quiet Uptown.wav

Peak level 99.8 %
Extraction speed 3.7 X
Track quality 100.0 %
Test CRC 7A638643
Copy CRC 7A638643
Accurately ripped (confidence 83) [D8E7B20C] (AR v2)
Copy OK

Track 19

Filename D:\_Post\Hamilton\CD2\19 - The Election of 1800.wav

Peak level 99.8 %
Extraction speed 3.8 X
Track quality 100.0 %
Test CRC B6BEA32C
Copy CRC B6BEA32C
Accurately ripped (confidence 83) [51B4425C] (AR v2)
Copy OK

Track 20

Filename D:\_Post\Hamilton\CD2\20 - Your Obedient Servant.wav

Peak level 99.8 %
Extraction speed 2.3 X
Track quality 99.9 %
Test CRC 2AFF0A0A
Copy CRC 2AFF0A0A
Accurately ripped (confidence 85) [79D9616D] (AR v2)
Copy OK

Track 21

Filename D:\_Post\Hamilton\CD2\21 - Best of Wives and Best of Women.wav

Peak level 84.4 %
Extraction speed 2.5 X
Track quality 100.0 %
Test CRC 4013E57D
Copy CRC 4013E57D
Accurately ripped (confidence 85) [62CC66EF] (AR v2)
Copy OK

Track 22

Filename D:\_Post\Hamilton\CD2\22 - The World Was Wide Enough.wav

Peak level 99.8 %
Extraction speed 4.0 X
Track quality 100.0 %
Test CRC D9871B9F
Copy CRC D9871B9F
Accurately ripped (confidence 85) [18F68F06] (AR v2)
Copy OK

Track 23

Filename D:\_Post\Hamilton\CD2\23 - Who Lives, Who Dies, Who Tells Your Story.wav

Peak level 99.8 %
Extraction speed 4.0 X
Track quality 100.0 %
Test CRC 26171BA6
Copy CRC 26171BA6
Accurately ripped (confidence 85) [DE8560BC] (AR v2)
Copy OK


All tracks accurately ripped

No errors occurred

End of status report

–– CUETools DB Plugin V2.1.6

[CTDB TOCID: hKi.Ha7ccLrU6w6e_Q.aHuJ9nZw-] found
Submit result: hKi.Ha7ccLrU6w6e_Q.aHuJ9nZw- has been confirmed
Track | CTDB Status
1 | (483/535) Accurately ripped, or (18/535) differs in 12 samples @03:56:51-03:56:52
2 | (483/535) Accurately ripped, or (18/535) differs in 1155 samples @00:00:00,03:35:16-03:35:17
3 | (502/535) Accurately ripped, or (18/535) differs in 1165 samples @00:00:00,04:46:36-04:46:37
4 | (502/535) Accurately ripped, or (18/535) differs in 1174 samples @00:00:00,04:02:00-04:02:01
5 | (503/535) Accurately ripped, or (18/535) differs in 1167 samples @00:00:00,05:18:15-05:18:16
6 | (504/535) Accurately ripped, or (18/535) differs in 519 samples @00:00:00,01:03:41-01:03:42
7 | (485/535) Accurately ripped, or (18/535) differs in 1167 samples @00:00:00,02:22:47-02:22:48
8 | (486/535) Accurately ripped, or (18/535) differs in 192 samples @00:00:00,03:01:35-03:01:36
9 | (504/535) Accurately ripped, or (18/535) differs in 952 samples @00:00:00
10 | (508/535) Accurately ripped, or (18/535) differs in 130 samples @00:00:00,01:37:72-01:37:73
11 | (506/535) Accurately ripped, or (18/535) differs in 1175 samples @00:00:00,00:54:62-00:54:63
12 | (508/535) Accurately ripped, or (18/535) differs in 929 samples @00:00:00,02:22:03-02:22:04
13 | (508/535) Accurately ripped, or (18/535) differs in 360 samples @00:00:00,02:23:40-02:23:41
14 | (507/535) Accurately ripped, or (18/535) differs in 1174 samples @00:00:00,02:08:34-02:08:35
15 | (487/535) Accurately ripped, or (18/535) differs in 1156 samples @00:00:00
16 | (487/535) Accurately ripped, or (18/535) differs in 66 samples @00:00:00,02:53:44-02:53:45
17 | (508/535) Accurately ripped, or (18/535) differs in 1165 samples @00:00:00,01:51:40-01:51:41
18 | (487/535) Accurately ripped, or (18/535) differs in 579 samples @00:00:00,04:30:12-04:30:13
19 | (485/535) Accurately ripped, or (18/535) differs in 301 samples @00:00:00,03:57:73-03:57:74
20 | (506/535) Accurately ripped, or (18/535) differs in 55 samples @00:00:00,02:30:04-02:30:05
21 | (506/535) Accurately ripped, or (18/535) differs in 80 samples @00:00:00,00:47:69-00:47:70
22 | (505/535) Accurately ripped, or (18/535) differs in 1162 samples @00:00:00,05:02:14-05:02:15
23 | (505/535) Accurately ripped, or (18/535) differs in 1129 samples @00:00:00


==== Log checksum 5BEEA11212F6F7A34B2321B909FE09E7BB5030D4FC407BAE29A04A4835A06140 ====


Original Broadway Cast Recording - Hamilton (2015) {2CD Set Atlantic 551093-2}



===