Subcategories

Ornette Coleman - Skies Of America (1972) {2014 Japan Jazz Collection 1000 Columbia-RCA Series SICP 4042}

Posted By: ruskaval
Ornette Coleman - Skies Of America (1972) {2014 Japan Jazz Collection 1000 Columbia-RCA Series SICP 4042}

Ornette Coleman - Skies Of America (1972) {2014 Japan Jazz Collection 1000 Columbia-RCA Series SICP 4042}
EAC rip (secure mode) | FLAC (tracks)+CUE+LOG -> 234 Mb | MP3 @320 -> 99 Mb
Full Artwork @ 600 dpi (png) -> 156 Mb | 5% repair rar
© 1972, 2014 Columbia / Sony Music Japan | SICP 4042
Jazz / Avant-Garde Jazz / Contemporary Jazz / Saxophone

Reissue with the latest remastering. Comes with liner notes. A brilliant large ensemble work from Ornette Coleman – ambitious material recorded with full orchestra, in a haunting sound that's light years from any of his smaller group recordings of the 60s and 70s! There's an incredible feel to the strings used here – played by the London Symphony Orchestra, conducted by David Measham – all tied up and dark, with swirling sounds that run up beautifully from the bottom, then take off to the skies promised in the title – opening the door for Ornette to come in and solo freely over the top – in a magical mix that easily makes the record a standout in his long and mighty career!

Harmolodic theory is definitely a part of Coleman's conception here – but in very different ways than his quartet or quintet recordings. Tracks include "The Men Who Live In The White House", "Sunday In America", "Dreams", "Native Americans", "Silver Screen", and "The Artist In America".
Ornette Coleman - Skies Of America (1972) {2014 Japan Jazz Collection 1000 Columbia-RCA Series SICP 4042}


Personnel:
Ornette Coleman — alto saxophone
London Symphony Orchestra — instruments
David Measham — conductor

tracklist:
01 - Skies Of America
02 - Native Americans
03 - The Good Life
04 - Birthdays And Funerals
05 - Dreams
06 - Sounds Of Sculpture
07 - Holiday For Heroes
08 - All Of My Life
09 - Dancers
10 - The Soul Within Woman
11 - The Artist In America
12 - The New Anthem
13 - Place In Space
14 - Foreigner In A Free Land
15 - Silver Screen
16 - Poetry
17 - The Men Who Live In The White House
18 - Love Life
19 - The Military
20 - Jam Session
21 - Sunday In America

Exact Audio Copy V1.3 from 2. September 2016

EAC extraction logfile from 3. August 2017, 19:23

Ornette Coleman / Skies Of America

Used drive : TSSTcorpCDDVDW SE-208DB Adapter: 1 ID: 1

Read mode : Secure
Utilize accurate stream : Yes
Defeat audio cache : Yes
Make use of C2 pointers : No

Read offset correction : 6
Overread into Lead-In and Lead-Out : No
Fill up missing offset samples with silence : Yes
Delete leading and trailing silent blocks : No
Null samples used in CRC calculations : Yes
Used interface : Native Win32 interface for Win NT & 2000
Gap handling : Appended to previous track

Used output format : User Defined Encoder
Selected bitrate : 1024 kBit/s
Quality : High
Add ID3 tag : No
Command line compressor : C:\Program Files (x86)\FLAC Frontend\tools\flac.exe
Additional command line options : -8 -V -T "ARTIST=%artist%" -T "TITLE=%title%" -T "ALBUM=%albumtitle%" -T "DATE=%year%" -T "TRACKNUMBER=%tracknr%" -T "TOTALTRACKS=%numtracks%" -T "GENRE=%genre%" -T "ALBUMARTIST=%albumartist%" -T "ALBUM ARTIST=%albumartist%" -T "COMMENT=EAC Secure Mode, Test & Copy, AccurateRip, FLAC -8" %source%


TOC of the extracted CD

Track | Start | Length | Start sector | End sector
––––––––––––––––––––––––––––-
1 | 0:00.00 | 2:49.30 | 0 | 12704
2 | 2:49.30 | 1:10.35 | 12705 | 17989
3 | 3:59.65 | 1:33.45 | 17990 | 25009
4 | 5:33.35 | 3:13.10 | 25010 | 39494
5 | 8:46.45 | 0:51.65 | 39495 | 43384
6 | 9:38.35 | 1:20.05 | 43385 | 49389
7 | 10:58.40 | 1:10.12 | 49390 | 54651
8 | 12:08.52 | 3:08.48 | 54652 | 68799
9 | 15:17.25 | 1:17.57 | 68800 | 74631
10 | 16:35.07 | 0:47.40 | 74632 | 78196
11 | 17:22.47 | 3:54.23 | 78197 | 95769
12 | 21:16.70 | 0:31.30 | 95770 | 98124
13 | 21:48.25 | 2:44.20 | 98125 | 110444
14 | 24:32.45 | 1:19.22 | 110445 | 116391
15 | 25:51.67 | 1:10.40 | 116392 | 121681
16 | 27:02.32 | 1:15.45 | 121682 | 127351
17 | 28:18.02 | 2:48.30 | 127352 | 139981
18 | 31:06.32 | 4:34.45 | 139982 | 160576
19 | 35:41.02 | 0:32.65 | 160577 | 163041
20 | 36:13.67 | 0:39.70 | 163042 | 166036
21 | 36:53.62 | 4:29.55 | 166037 | 186266


Track 1

Filename E:\EAC_RIP\Ornette Coleman - Skies Of America (1972) [FLAC] {Columbia Japan SICP 4042 rel 2014}\01 - Skies Of America.wav

Pre-gap length 0:00:02.00

Peak level 96.4 %
Extraction speed 0.9 X
Track quality 100.0 %
Test CRC 57D16A4F
Copy CRC 57D16A4F
Accurately ripped (confidence 5) [63EBE46A] (AR v2)
Copy OK

Track 2

Filename E:\EAC_RIP\Ornette Coleman - Skies Of America (1972) [FLAC] {Columbia Japan SICP 4042 rel 2014}\02 - Native Americans.wav

Peak level 88.4 %
Extraction speed 0.7 X
Track quality 100.0 %
Test CRC AD8F4432
Copy CRC AD8F4432
Accurately ripped (confidence 5) [A8CDA4F4] (AR v2)
Copy OK

Track 3

Filename E:\EAC_RIP\Ornette Coleman - Skies Of America (1972) [FLAC] {Columbia Japan SICP 4042 rel 2014}\03 - The Good Life.wav

Peak level 100.0 %
Extraction speed 0.6 X
Track quality 99.8 %
Test CRC 976B8C01
Copy CRC 976B8C01
Accurately ripped (confidence 5) [8B871C80] (AR v2)
Copy OK

Track 4

Filename E:\EAC_RIP\Ornette Coleman - Skies Of America (1972) [FLAC] {Columbia Japan SICP 4042 rel 2014}\04 - Birthdays And Funerals.wav

Peak level 92.0 %
Extraction speed 1.1 X
Track quality 100.0 %
Test CRC 2B1A0A0A
Copy CRC 2B1A0A0A
Accurately ripped (confidence 5) [4475D99A] (AR v2)
Copy OK

Track 5

Filename E:\EAC_RIP\Ornette Coleman - Skies Of America (1972) [FLAC] {Columbia Japan SICP 4042 rel 2014}\05 - Dreams.wav

Peak level 88.7 %
Extraction speed 0.7 X
Track quality 100.0 %
Test CRC 2477F3CA
Copy CRC 2477F3CA
Accurately ripped (confidence 5) [1EDBAA12] (AR v2)
Copy OK

Track 6

Filename E:\EAC_RIP\Ornette Coleman - Skies Of America (1972) [FLAC] {Columbia Japan SICP 4042 rel 2014}\06 - Sounds Of Sculpture.wav

Peak level 96.6 %
Extraction speed 0.9 X
Track quality 100.0 %
Test CRC A474B77E
Copy CRC A474B77E
Accurately ripped (confidence 5) [78FD1F02] (AR v2)
Copy OK

Track 7

Filename E:\EAC_RIP\Ornette Coleman - Skies Of America (1972) [FLAC] {Columbia Japan SICP 4042 rel 2014}\07 - Holiday For Heroes.wav

Peak level 98.5 %
Extraction speed 0.9 X
Track quality 100.0 %
Test CRC 6741EE3B
Copy CRC 6741EE3B
Accurately ripped (confidence 5) [25B6AC7B] (AR v2)
Copy OK

Track 8

Filename E:\EAC_RIP\Ornette Coleman - Skies Of America (1972) [FLAC] {Columbia Japan SICP 4042 rel 2014}\08 - All Of My Life.wav

Peak level 78.7 %
Extraction speed 1.2 X
Track quality 100.0 %
Test CRC DC69643C
Copy CRC DC69643C
Accurately ripped (confidence 5) [4E46EAEB] (AR v2)
Copy OK

Track 9

Filename E:\EAC_RIP\Ornette Coleman - Skies Of America (1972) [FLAC] {Columbia Japan SICP 4042 rel 2014}\09 - Dancers.wav

Peak level 100.0 %
Extraction speed 0.9 X
Track quality 100.0 %
Test CRC 66D1E2E0
Copy CRC 66D1E2E0
Accurately ripped (confidence 5) [2C890334] (AR v2)
Copy OK

Track 10

Filename E:\EAC_RIP\Ornette Coleman - Skies Of America (1972) [FLAC] {Columbia Japan SICP 4042 rel 2014}\10 - The Soul Within Woman.wav

Peak level 83.6 %
Extraction speed 0.8 X
Track quality 100.0 %
Test CRC 66E51BD7
Copy CRC 66E51BD7
Accurately ripped (confidence 5) [E694B5C8] (AR v2)
Copy OK

Track 11

Filename E:\EAC_RIP\Ornette Coleman - Skies Of America (1972) [FLAC] {Columbia Japan SICP 4042 rel 2014}\11 - The Artist In America.wav

Peak level 100.0 %
Extraction speed 1.3 X
Track quality 100.0 %
Test CRC AA42F22D
Copy CRC AA42F22D
Accurately ripped (confidence 5) [B1E59404] (AR v2)
Copy OK

Track 12

Filename E:\EAC_RIP\Ornette Coleman - Skies Of America (1972) [FLAC] {Columbia Japan SICP 4042 rel 2014}\12 - The New Anthem.wav

Peak level 100.0 %
Extraction speed 0.6 X
Track quality 100.0 %
Test CRC 1A14A087
Copy CRC 1A14A087
Accurately ripped (confidence 5) [3A85CB64] (AR v2)
Copy OK

Track 13

Filename E:\EAC_RIP\Ornette Coleman - Skies Of America (1972) [FLAC] {Columbia Japan SICP 4042 rel 2014}\13 - Place In Space.wav

Peak level 100.0 %
Extraction speed 1.3 X
Track quality 100.0 %
Test CRC 7795733E
Copy CRC 7795733E
Accurately ripped (confidence 5) [C92DFCAB] (AR v2)
Copy OK

Track 14

Filename E:\EAC_RIP\Ornette Coleman - Skies Of America (1972) [FLAC] {Columbia Japan SICP 4042 rel 2014}\14 - Foreigner In A Free Land.wav

Peak level 96.7 %
Extraction speed 1.0 X
Track quality 100.0 %
Test CRC 970D5E45
Copy CRC 970D5E45
Accurately ripped (confidence 5) [FCC1AD2E] (AR v2)
Copy OK

Track 15

Filename E:\EAC_RIP\Ornette Coleman - Skies Of America (1972) [FLAC] {Columbia Japan SICP 4042 rel 2014}\15 - Silver Screen.wav

Peak level 68.9 %
Extraction speed 1.0 X
Track quality 100.0 %
Test CRC C5BB3AF0
Copy CRC C5BB3AF0
Accurately ripped (confidence 5) [7F43FF23] (AR v2)
Copy OK

Track 16

Filename E:\EAC_RIP\Ornette Coleman - Skies Of America (1972) [FLAC] {Columbia Japan SICP 4042 rel 2014}\16 - Poetry.wav

Peak level 64.3 %
Extraction speed 1.0 X
Track quality 100.0 %
Test CRC B031E597
Copy CRC B031E597
Accurately ripped (confidence 5) [8CDA8728] (AR v2)
Copy OK

Track 17

Filename E:\EAC_RIP\Ornette Coleman - Skies Of America (1972) [FLAC] {Columbia Japan SICP 4042 rel 2014}\17 - The Men Who Live In The White House.wav

Peak level 75.5 %
Extraction speed 1.4 X
Track quality 100.0 %
Test CRC 207D8501
Copy CRC 207D8501
Accurately ripped (confidence 5) [D315A0CA] (AR v2)
Copy OK

Track 18

Filename E:\EAC_RIP\Ornette Coleman - Skies Of America (1972) [FLAC] {Columbia Japan SICP 4042 rel 2014}\18 - Love Life.wav

Peak level 65.2 %
Extraction speed 1.5 X
Track quality 100.0 %
Test CRC CC46CCD6
Copy CRC CC46CCD6
Accurately ripped (confidence 5) [9459CC47] (AR v2)
Copy OK

Track 19

Filename E:\EAC_RIP\Ornette Coleman - Skies Of America (1972) [FLAC] {Columbia Japan SICP 4042 rel 2014}\19 - The Military.wav

Peak level 78.0 %
Extraction speed 0.5 X
Track quality 99.6 %
Test CRC 387E50F6
Copy CRC 387E50F6
Accurately ripped (confidence 5) [3A5B2D83] (AR v2)
Copy OK

Track 20

Filename E:\EAC_RIP\Ornette Coleman - Skies Of America (1972) [FLAC] {Columbia Japan SICP 4042 rel 2014}\20 - Jam Session.wav

Peak level 77.5 %
Extraction speed 0.8 X
Track quality 100.0 %
Test CRC 2BE05A74
Copy CRC 2BE05A74
Accurately ripped (confidence 5) [C2213867] (AR v2)
Copy OK

Track 21

Filename E:\EAC_RIP\Ornette Coleman - Skies Of America (1972) [FLAC] {Columbia Japan SICP 4042 rel 2014}\21 - Sunday In America.wav

Peak level 66.5 %
Extraction speed 1.6 X
Track quality 100.0 %
Test CRC BAFCC04B
Copy CRC BAFCC04B
Accurately ripped (confidence 5) [D5D9E7DA] (AR v2)
Copy OK


All tracks accurately ripped

No errors occurred

End of status report

–– CUETools DB Plugin V2.1.6

[CTDB TOCID: 8zEpEZaChhkGrXkfAGxQS3qTANQ-] found
Submit result: 8zEpEZaChhkGrXkfAGxQS3qTANQ- has been confirmed
Track | CTDB Status
1 | (33/33) Accurately ripped
2 | (33/33) Accurately ripped
3 | (33/33) Accurately ripped
4 | (33/33) Accurately ripped
5 | (33/33) Accurately ripped
6 | (33/33) Accurately ripped
7 | (33/33) Accurately ripped
8 | (33/33) Accurately ripped
9 | (33/33) Accurately ripped
10 | (33/33) Accurately ripped
11 | (33/33) Accurately ripped
12 | (33/33) Accurately ripped
13 | (33/33) Accurately ripped
14 | (33/33) Accurately ripped
15 | (33/33) Accurately ripped
16 | (33/33) Accurately ripped
17 | (33/33) Accurately ripped
18 | (33/33) Accurately ripped
19 | (33/33) Accurately ripped
20 | (33/33) Accurately ripped
21 | (33/33) Accurately ripped


==== Log checksum 8AE131E6937705214C7A8BFB41635F5E753CB5DBD2860C7B88E7212BA9E497E0 ====


Ornette Coleman - Skies Of America (1972) {2014 Japan Jazz Collection 1000 Columbia-RCA Series SICP 4042}

Ornette Coleman - Skies Of America (1972) {2014 Japan Jazz Collection 1000 Columbia-RCA Series SICP 4042}


see more Japan Jazz Collection 1000 Columbia-RCA Series…


===