VA - Snatch (Original Film Soundtrack) (2001) [Repost / Upgrade]

Posted By: luckburz
VA - Snatch (Original Film Soundtrack) (2001) [Repost / Upgrade]

VA - Snatch (Original Film Soundtrack)
EAC+LOG+CUE | FLAC: 375 MB | Full Artwork: 36 MB | 5% Recovery Info
Label/Cat#: TVT Records # TVT 6950-2 | Country/Year: US 2001
Genre: Electronic, Pop, Reggae, Rock | Style: Big Beat, Brit Pop, Funk, Classic Rock

MD5 [X] CUE [X] LOG [X] INFO TEXT [X] ARTWORK [X]

selfrip [X] not my rip []

VA - Snatch (Original Film Soundtrack) (2001) [Repost / Upgrade]


Exact Audio Copy V1.0 beta 3 from 29. August 2011

EAC extraction logfile from 14. May 2013, 18:50

Various / Snatch OST

Used drive : PIONEER BD-RW BDR-206 Adapter: 0 ID: 2

Read mode : Secure
Utilize accurate stream : Yes
Defeat audio cache : Yes
Make use of C2 pointers : No

Read offset correction : 667
Overread into Lead-In and Lead-Out : No
Fill up missing offset samples with silence : Yes
Delete leading and trailing silent blocks : No
Null samples used in CRC calculations : Yes
Used interface : Native Win32 interface for Win NT & 2000

Used output format : User Defined Encoder
Selected bitrate : 1024 kBit/s
Quality : High
Add ID3 tag : Yes
Command line compressor : C:\Program Files\FLAC\flac.exe
Additional command line options : -5 -T "Artist=%artist%" -T "Title=%title%" -T "Album=%albumtitle%" -T "Date=%year%" -T "Tracknumber=%tracknr%" -T "Genre=%genre%" %source% -o %dest%


TOC of the extracted CD

Track | Start | Length | Start sector | End sector
––––––––––––––––––––––––––––-
1 | 0:00.00 | 0:04.55 | 0 | 354
2 | 0:04.55 | 3:14.27 | 355 | 14931
3 | 3:19.07 | 4:46.53 | 14932 | 36434
4 | 8:05.60 | 2:29.40 | 36435 | 47649
5 | 10:35.25 | 3:24.37 | 47650 | 62986
6 | 13:59.62 | 4:23.25 | 62987 | 82736
7 | 18:23.12 | 1:52.30 | 82737 | 91166
8 | 20:15.42 | 0:11.40 | 91167 | 92031
9 | 20:27.07 | 3:14.73 | 92032 | 106654
10 | 23:42.05 | 3:32.00 | 106655 | 122554
11 | 27:14.05 | 0:14.65 | 122555 | 123669
12 | 27:28.70 | 2:22.62 | 123670 | 134381
13 | 29:51.57 | 3:31.23 | 134382 | 150229
14 | 33:23.05 | 5:50.60 | 150230 | 176539
15 | 39:13.65 | 3:36.67 | 176540 | 192806
16 | 42:50.57 | 4:51.33 | 192807 | 214664
17 | 47:42.15 | 6:16.22 | 214665 | 242886
18 | 53:58.37 | 3:17.13 | 242887 | 257674
19 | 57:15.50 | 2:27.55 | 257675 | 268754
20 | 59:43.30 | 0:06.67 | 268755 | 269271


Range status and errors

Selected range

Filename F:\=== VINYL RIPS ===\=== EAC===\X FRESH RIP\Various - Snatch OST.wav

Peak level 99.9 %
Extraction speed 7.2 X
Range quality 99.9 %
Copy CRC 5134FA92
Copy OK

No errors occurred


AccurateRip summary

Track 1 not present in database
Track 2 accurately ripped (confidence 2) [9B24A1A5] (AR v2)
Track 3 accurately ripped (confidence 2) [F995EF4C] (AR v2)
Track 4 accurately ripped (confidence 2) [860FD58E] (AR v2)
Track 5 accurately ripped (confidence 2) [810012FE] (AR v2)
Track 6 accurately ripped (confidence 2) [F7DB44F0] (AR v2)
Track 7 accurately ripped (confidence 2) [4FDAD6EC] (AR v2)
Track 8 accurately ripped (confidence 2) [3BFE54E5] (AR v2)
Track 9 accurately ripped (confidence 2) [95F57D00] (AR v2)
Track 10 accurately ripped (confidence 2) [4AC89A2D] (AR v2)
Track 11 accurately ripped (confidence 2) [BB61D61D] (AR v2)
Track 12 accurately ripped (confidence 2) [EC278AF6] (AR v2)
Track 13 accurately ripped (confidence 2) [30237F31] (AR v2)
Track 14 accurately ripped (confidence 2) [C06A5CB2] (AR v2)
Track 15 accurately ripped (confidence 2) [60B9CB18] (AR v2)
Track 16 accurately ripped (confidence 2) [68536914] (AR v2)
Track 17 accurately ripped (confidence 2) [CEBB0809] (AR v2)
Track 18 accurately ripped (confidence 2) [64C02734] (AR v2)
Track 19 accurately ripped (confidence 2) [F02EC8FB] (AR v2)
Track 20 accurately ripped (confidence 2) [93E8CC92] (AR v2)

19 Track(s) akkurat gelesen
1 Track(s) nicht in der AccurateRip Datenbank vorhanden

Some tracks could not be verified as accurate

End of status report

–– CUETools DB Plugin V2.1.3

[CTDB TOCID: KBlY88gmfViAts2QQJiB4AYy_7M-] found, Submit result: KBlY88gmfViAts2QQJiB4AYy_7M- has been confirmed
[93af1946] (19/19) Accurately ripped


==== Log checksum 80D021E30AD0FA77A645D492483F6B00A29BECBD31848798B12EA95188DE233A ====

foobar2000 1.1.14a / Dynamic Range Meter 1.1.1
log date: 2013-05-14 18:51:44

––––––––––––––––––––––––––––––––––––––––
Analyzed: Various / Snatch OST
––––––––––––––––––––––––––––––––––––––––

DR Peak RMS Duration Track
––––––––––––––––––––––––––––––––––––––––
DR17 -0.01 dB -16.52 dB 0:05 01-Brad Pitt - Kuasehfgaiurgh [Dialogue from Film]
DR6 -0.01 dB -7.98 dB 3:14 02-Klint - Diamond
DR6 -1.35 dB -9.31 dB 4:47 03-Overseer - Supermoves
DR8 -0.01 dB -10.28 dB 2:30 04-The Johnston Brothers - Hernando's Hideaway
DR8 -0.01 dB -9.95 dB 3:24 05-The Stranglers - Golden Brown
DR10 -0.01 dB -11.96 dB 4:23 06-10CC - Dreadlock Holiday
DR8 -0.72 dB -11.29 dB 1:52 07-John Murphy - Hava Nagila [Original Film Score]
DR13 -0.02 dB -14.04 dB 0:12 08-Dennis Farina - Avi Arrives [Dialogue from Film]
DR8 -0.01 dB -10.34 dB 3:15 09-Maceo & The Macks - Cross the Tracks (We Better Go Back)
DR5 -1.37 dB -7.32 dB 3:32 10-Mirwais - Disco Science
DR13 -3.57 dB -19.43 dB 0:15 11-Alan Ford - Nemesis [Dialogue from Film]
DR9 -0.01 dB -9.91 dB 2:23 12-Bobby Byrd - Hot Pants (I'm Coming, Coming, I'm Coming)
DR8 -0.01 dB -9.50 dB 3:31 13-Madonna - Lucky Star
DR10 -0.01 dB -11.18 dB 5:51 14-The Specials - Ghost Town
DR10 -0.01 dB -14.01 dB 3:37 15-Klint - Are You There
DR8 -2.81 dB -11.58 dB 4:51 16-The Herbaliser - Sensual Woman
DR8 -0.92 dB -10.86 dB 6:16 17-Massive Attack - Angel
DR7 -0.86 dB -10.13 dB 3:17 18-Oasis - Fuckin' in the Bushes
DR8 -1.40 dB -11.07 dB 2:28 19-Huey 'Piano' Smith & The Clowns - Don't You Just Know It
DR10 -3.48 dB -14.97 dB 0:07 20-Dennis Farina - Avi's Declaration [Dialogue from Film]
––––––––––––––––––––––––––––––––––––––––

Number of tracks: 20
Official DR value: DR9

Samplerate: 44100 Hz
Channels: 2
Bits per sample: 16
Bitrate: 877 kbps
Codec: FLAC
================================================================================



CD Info:

Various ‎– Snatch Original Film Soundtrack

Label: TVT Records
Catalog#: TVT 6950-2
Format: CD, Album, Compilation
Country: US
Released: 09 Jan 2001
Genre: Electronic, Funk / Soul, Jazz, Non-Music, Pop, Reggae, Rock
Style: Pop Rock, Spoken Word, Abstract, Big Beat, Reggae-Pop, Experimental, Brit Pop, Funk, Classic Rock

Tracklist:

1 No Artist – "Kuasehfgaiurgh" (Dialogue From Film) 0:05
2 Klint – Diamond 3:32
3 Overseer – Supermoves 4:47
4 Johnston Brothers, The – Hernando's Hideaway 2:29
5 Stranglers, The – Golden Brown 3:25
6 10cc – Dreadlock Holiday 4:24
7 John Murphy and Daniel L. Griffiths – Hava Nagila 1:52
8 No Artist – "Avi Arrives" (Dialogue From Film) 0:13
9 Maceo & The Macks – Cross The Tracks (We Better Go Back) 3:15
10 Mirwais – Disco Science 3:32
11 No Artist – "Nemesis" (Dialogue From Film) 0:15
12 Bobby Byrd – Hot Pants (I'm Coming, Coming, I'm Coming) 2:23
13 Madonna – Lucky Star 3:33
14 Specials, The – Ghost Town 5:53
15 Klint – Are You There 3:37
16 Herbaliser, The – Sensual Woman 4:52
17 Massive Attack – Angel 6:17
18 Oasis – Fuckin' In The Bushes 3:18
19 Huey "Piano" Smith and Clowns, The – Don't You Just Know It 2:32
20 No Artist – "Avi's Declaration" (Dialogue From Film) 0:07

Review by Diana Potts

Following in the form of the actual movie, Snatch's soundtrack starts off with a musical bang and a couple minced-up words from Brad Pitt. The album catapults itself into high speed with the heavy, electronic sounds of Klint and Overseer to a full-on schizophrenic music highway. Taking a note from soundtrack heavyweights like Pulp Fiction and Richie's soundtrack for his Lock, Stock and Two Smoking Barrels, Snatch's is sprinkled with dialogue clips from the movie to give more power to the songs. Richie's taste for extreme music collectives is what makes his soundtracks so pleasing and timeless; starting with heavy electronica to the Latin tango of "Hernando's Hideaway," the two-tone of the the Specials' "Ghost Town," back to Madonna's early pop, and even a traditional Jewish anthem for good measure. Highlights of the album include the Strangler's British new wave "Golden Brown" and Herbaliser's bold "Sensual Woman." Richie once again proves his ability to smoothly tie together a wide spectrum of music genres while somehow keeping them focused in the direction of a film just as sporadic as its music. allmusicguide

VA - Snatch (Original Film Soundtrack) (2001) [Repost / Upgrade]


all of my uploads in my blog
________________

Download:

Music
&
Artwork

________________