Subcategories

Pale Divine - Thunder Perfect Mind (2001)

Posted By: Necromandus
Pale Divine - Thunder Perfect Mind (2001)

Pale Divine - Thunder Perfect Mind (2001)
EAC Rip | WV, IMG+CUE+LOG | 530 MB | MP3 CBR 320 Kbps | 180 MB | Complete Scans | 22 MB
Doom Metal/'70s groove | Label: psyheDOOMelic | Catalog Number: PSY 020 | RAR 3% Rec. | RS.com
Re-issued in 2005 by psycheDOOMelic Records with two bonus live tracks.

"Trouble, Priest, Witchfinder General, Pentagram, the Obsessed, early Orange Goblin, etc…This album is a trip through the historical highpoints of doom rock. I say ‘rock’ because it isn’t funeral, equilibrium style doom. It’s generally a bit more up-tempo.. but in places it is just as heavy. On this album Pale Divine are able to celebrate their influences without losing a sense of their own identity and sound, in much the same way as a band like say Cathedral has been able to do. Great lead guitar, some truly menacing riffs, and a tight rhythm section set Pale Divine above the majority of bands playing this style of music. Dirty, occasionally harsh, vocals complement the scorching playing on this album. There have been some cool ‘doom’ type albums coming out from bands like Electric Wizard, Soulpreacher, Ufomammaut, Church of Misery, etc but on Thunder Perfect Mind Pale Divine capture the classic doom rock feeling like few modern albums I’ve heard."

~ StonerRock.com
Tracklist:

1. Amplified - 11:18
2. Magic Potion - 5:34
3. Judas Wheel - 10:06
4. Pale Divine - 5:18
5. Gods, Monsters & Men - 3:41
6. Dream Flower - 0:40
7. Star Child - 5:52
8. Devil's Mark - 5:36
9. 20 Buck Spin - 3:36
10. Dark Knight - 6:19
11. Amplified (Live, bonus track) - 10:58
12. Pale Divine (Live, bonus track) - 4:56

Exact Audio Copy V0.99 prebeta 4 from 23. January 2008

EAC extraction logfile from 25. May 2009, 10:54

Pale Divine / Thunder Perfect Mind

Used drive : SONY DVD RW AW-G170A Adapter: 0 ID: 0

Read mode : Secure
Utilize accurate stream : Yes
Defeat audio cache : Yes
Make use of C2 pointers : No

Read offset correction : 48
Overread into Lead-In and Lead-Out : No
Fill up missing offset samples with silence : Yes
Delete leading and trailing silent blocks : No
Null samples used in CRC calculations : Yes
Used interface : Installed external ASPI interface

Used output format : Internal WAV Routines
Sample format : 44.100 Hz; 16 Bit; Stereo


TOC of the extracted CD

Track | Start | Length | Start sector | End sector
––––––––––––––––––––––––––––-
1 | 0:00.00 | 11:18.14 | 0 | 50863
2 | 11:18.14 | 5:33.40 | 50864 | 75878
3 | 16:51.54 | 10:05.56 | 75879 | 121309
4 | 26:57.35 | 5:17.65 | 121310 | 145149
5 | 32:15.25 | 3:41.27 | 145150 | 161751
6 | 35:56.52 | 0:40.21 | 161752 | 164772
7 | 36:36.73 | 5:51.54 | 164773 | 191151
8 | 42:28.52 | 5:36.32 | 191152 | 216383
9 | 48:05.09 | 3:35.70 | 216384 | 232578
10 | 51:41.04 | 6:18.67 | 232579 | 260995
11 | 57:59.71 | 10:57.44 | 260996 | 310314
12 | 68:57.40 | 4:55.60 | 310315 | 332499


Range status and errors

Selected range

Filename D:\Music\Pale Divine - Thunder Perfect Mind.wav

Peak level 100.0 %
Range quality 100.0 %
Test CRC 02F49D33
Copy CRC 02F49D33
Copy OK

No errors occurred


AccurateRip summary

Track 1 not present in database
Track 2 not present in database
Track 3 not present in database
Track 4 not present in database
Track 5 not present in database
Track 6 not present in database
Track 7 not present in database
Track 8 not present in database
Track 9 not present in database
Track 10 not present in database
Track 11 not present in database
Track 12 not present in database

None of the tracks are present in the AccurateRip database

End of status report

auCDtect: CD records authenticity detector, version 0.8.2
Copyright © 2004 Oleg Berngardt. All rights reserved.
Copyright © 2004 Alexander Djourik. All rights reserved.
––––––––––––––––––––––––––––––
Processing file: [Pale Divine - Thunder Perfect Mind.wav]
Detected average hi-boundary frequency: 2.036006e+004 Hz
Detected average lo-boundary frequency: 1.375067e+004 Hz
Detected average hi-cut frequency: 2.151410e+004 Hz
Detected average lo-cut frequency: 1.349957e+004 Hz
Maximum probablis boundary frequency: 2.189100e+004 Hz
Coefficient of nonlinearity of a phase: 2.540182e-001
First order smothness: 3.417029e-001
Second order smothness: 6.803851e-001

––––––––––––––––––––––––––––––
This track looks like CDDA with probability 100%

––––––––––––––––––––––––––––––
Final Conclusion:
––––––––––––––––––––––––––––––
These tracks looks like CDDA with probability 100%



[Verification date: 12.05.2009 10:02:58]
[Disc ID: 00228a66-013708e9-ab11510c]
Disk not present in database.

Track [ CRC32 ] [W/O NULL] [ LOG ]
– [02F49D33] [02AA6A92] CRC32
01 [683D98F2] [F95282EB]
02 [6D450606] [72664E17]
03 [9B6852A4] [54DC2CD4]
04 [B410789C] [C5E1368F]
05 [F0E6A227] [B0F465AC]
06 [959C370F] [781E8FBF]
07 [C827B4C5] [D12823BD]
08 [19705705] [6649195F]
09 [CF0ACF38] [EEF3B3A3]
10 [962D385D] [206CBB20]
11 [367A35F5] [E9BFB53F]
12 [0C63B576] [0E52C281]


Pale Divine are:
Greg Diener - Guitar, Vocals
Darin McCloskey - Drums
Jim Corl - Bass

Originally released by Game Two Records. Recorded at Four Star Studios, Lenni, PA
Engineered by Paul Falcone. Mixed and mastered by Chris Kozlovski at Polar Bear Lair, Middletown, MD
Track 11 & 12 recorded live 4/23/99 at Phantasmagoria, Wheaton, MD



See alsou:
Pale Divine - Cemetery Earth (2007)