Subcategories

Pantelis Thalassinos - 10 songs of hope (2013)

Posted By: Speedyclick
Pantelis Thalassinos - 10 songs of hope (2013)

Pantelis Thalassinos - 10 songs of hope (2013)
EAC Rip | FLAC (image & cue & log) & mp3 @ 320 kbps | tracks: 10 | Scans | 40:13 | ~ 275 Mb & 110 Mb
Label: Erimos Athina | 5% recovery record | Greek folk songs

Pantelis Thalassinos is a greek songwriter and singer with a velvet voice that litteraly "caresses" the ear. He started his musical career in 1986 by creating the musical duet "Lathrepivates" (Stowaways) with Yiannis Nikolaou, and became very popular. After the group's brake-off, he follows a very successful solo career and has released more than 15 wonderful albums. His music is deeply influenced by the traditional greek islands' musical culture (both his parents are from Aegean islands), and often has a dancing rhythm. All 10 songs of this new album, have a greek islands' flavor and are a delight to listen. Enjoy.

Pantelis Thalassinos - 10 songs of hope (2013)

TRACKLIST
01. Hope (Elpida)
02. My God (O dikos mou Theos)
03. You deserve it (Halali sou)
04. Humid July (Igros Ioulios)
05. When will we sail (Pote th' anixoume pania)
06. The gardens of the heart (Ta perivolia tis kardias)
07. You cannot sing the beauty (Den tragoudiete i omorfia)
08. I've seen in my dream (Ida ston ipno mou)
09. If you catch love (An piasis tin agapi)
10. Deep breaths (Vathies anapnoes)

Exact Audio Copy V1.0 beta 3 from 29. August 2011

EAC extraction logfile from 17. February 2013, 4:15

Pantelis Thalassinos / 10 tragoudia ths Elpidas

Used drive : HL-DT-STDVDRAM GH10N Adapter: 1 ID: 1

Read mode : Secure
Utilize accurate stream : Yes
Defeat audio cache : Yes
Make use of C2 pointers : No

Read offset correction : 667
Overread into Lead-In and Lead-Out : No
Fill up missing offset samples with silence : Yes
Delete leading and trailing silent blocks : No
Null samples used in CRC calculations : Yes
Used interface : Native Win32 interface for Win NT & 2000

Used output format : User Defined Encoder
Selected bitrate : 1024 kBit/s
Quality : High
Add ID3 tag : Yes
Command line compressor : C:\Program Files\Exact Audio Copy New\Flac\flac.exe
Additional command line options : -V -5 -T "artist=%artist%" -T "title=%title%" -T "album=%albumtitle%" -T "tracknumber=%tracknr2%" -T "genre=%genre%" -5 %source%


TOC of the extracted CD

Track | Start | Length | Start sector | End sector
––––––––––––––––––––––––––––-
1 | 0:00.00 | 4:08.60 | 0 | 18659
2 | 4:08.60 | 3:55.28 | 18660 | 36312
3 | 8:04.13 | 4:43.39 | 36313 | 57576
4 | 12:47.52 | 2:12.68 | 57577 | 67544
5 | 15:00.45 | 4:17.73 | 67545 | 86892
6 | 19:18.43 | 4:35.40 | 86893 | 107557
7 | 23:54.08 | 3:44.11 | 107558 | 124368
8 | 27:38.19 | 3:54.41 | 124369 | 141959
9 | 31:32.60 | 4:02.31 | 141960 | 160140
10 | 35:35.16 | 4:38.50 | 160141 | 181040


Range status and errors

Selected range

Filename S:\MUSIC\Uploaded\GREEK\Pantelis Thalassinos - 10 tragoudia ths Elpidas\Pantelis Thalassinos - 10 tragoudia ths Elpidas.wav

Peak level 100.0 %
Extraction speed 5.6 X
Range quality 100.0 %
Test CRC 19A363D2
Copy CRC 19A363D2
Copy OK

No errors occurred


AccurateRip summary

Track 1 not present in database
Track 2 not present in database
Track 3 not present in database
Track 4 not present in database
Track 5 not present in database
Track 6 not present in database
Track 7 not present in database
Track 8 not present in database
Track 9 not present in database
Track 10 not present in database

None of the tracks are present in the AccurateRip database

End of status report

–– CUETools DB Plugin V2.1.3

[CTDB TOCID: huYV7n9.HzrUgxIdJ2Us4cxjb5s-] disk not present in database, Submit result: huYV7n9.HzrUgxIdJ2Us4cxjb5s- has been uploaded


==== Log checksum 870159A4812FE6B690AB4BC2EA26E1253A45E7C7EF4E0F3C522D378AD7489F91 ====