Subcategories

Yiannis Parios - Love Attack (1991)

Posted By: Speedyclick
Yiannis Parios - Love Attack (1991)

Yiannis Parios - Love Attack (1991)
EAC Rip | FLAC (image & cue & log) | tracks: 12 | ~ 241 Mb | 38:49 | Scans
Label: MINOS-EMI | 5% recovery record | Genre: Love ballads

The musical meeting of the talented and popular composer Giorgos Hadjinasios with the "love singer" of Greece, Yiannis Parios. Tender and sensitive love ballads, sweet melodies and wonderful arrangements, backing the velvet voice of Yiannis Parios. A delightful CD with a summer flavor.

TRACKLIST
01. That's why I tell you let's go (Gi afto sou leo pame)
02. Who can compare to you? (Pios na sigkrithi mazi sou)
03. 220 Volt
04. Secretely at 9 (Krifa sto 9)
05. Let the others (Ki as tous alous)
06. Maria
07. Yes I cannot (Ne den mporo)
08. It's a circle (Kiklos ine)
09. Continuously more (Olo ke pio poli)
10. Hello (Here)
11. Attack of love (Epithesi agapis)
12. I have only you (Mono esena eho)

Exact Audio Copy V1.0 beta 1 from 15. November 2010

EAC extraction logfile from 26. June 2011, 5:26

Yiannis Parios / Epithesi agapis

Used drive : HL-DT-STDVDRAM GH10N Adapter: 3 ID: 0

Read mode : Secure
Utilize accurate stream : Yes
Defeat audio cache : Yes
Make use of C2 pointers : No

Read offset correction : 667
Overread into Lead-In and Lead-Out : No
Fill up missing offset samples with silence : Yes
Delete leading and trailing silent blocks : No
Null samples used in CRC calculations : Yes
Used interface : Native Win32 interface for Win NT & 2000

Used output format : User Defined Encoder
Selected bitrate : 1024 kBit/s
Quality : High
Add ID3 tag : No
Command line compressor : C:\Program Files\FLAC\flac.exe
Additional command line options : -V -5 -T "artist=%a" -T "title=%t" -T "album=%g" -T "date=%y" -T "tracknumber=%n" -T "genre=%m" -5 %s


TOC of the extracted CD

Track | Start | Length | Start sector | End sector
––––––––––––––––––––––––––––-
1 | 0:00.00 | 3:14.40 | 0 | 14589
2 | 3:14.40 | 3:23.37 | 14590 | 29851
3 | 6:38.02 | 3:28.05 | 29852 | 45456
4 | 10:06.07 | 2:58.35 | 45457 | 58841
5 | 13:04.42 | 3:18.03 | 58842 | 73694
6 | 16:22.45 | 3:30.62 | 73695 | 89506
7 | 19:53.32 | 2:50.68 | 89507 | 102324
8 | 22:44.25 | 3:23.37 | 102325 | 117586
9 | 26:07.62 | 3:25.53 | 117587 | 133014
10 | 29:33.40 | 3:08.05 | 133015 | 147119
11 | 32:41.45 | 2:40.15 | 147120 | 159134
12 | 35:21.60 | 3:27.60 | 159135 | 174719


Range status and errors

Selected range

Filename U:\EAC Rips\GREEK\Yannis Parios\1991 Yiannis Parios - Epithesi agapis\Yiannis Parios - Epithesi agapis.wav

Peak level 98.7 %
Extraction speed 0.4 X
Range quality 100.0 %
Test CRC D19C1C6F
Copy CRC D19C1C6F
Copy OK

No errors occurred


AccurateRip summary

Track 1 not present in database
Track 2 not present in database
Track 3 not present in database
Track 4 not present in database
Track 5 not present in database
Track 6 not present in database
Track 7 not present in database
Track 8 not present in database
Track 9 not present in database
Track 10 not present in database
Track 11 not present in database
Track 12 not present in database

None of the tracks are present in the AccurateRip database

End of status report

==== Log checksum 29E734970CC9A2A8491568074585C12512976F33F186EAF4456E68C3617519AE ====