Subcategories

Yiannis Parios - A boat to sail [The 18 most beautiful songs of the Greek islands] (2012)

Posted By: Speedyclick
Yiannis Parios - A boat to sail [The 18 most beautiful songs of the Greek islands] (2012)

Yiannis Parios - A boat to sail [The 18 most beautiful songs of the Greek islands] (2012)
EAC Rip | FLAC (image & cue & log) & mp3 @ 320 kbps | tracks: 18 | Scans | 57:29 | ~ 418 Mb & 148 Mb
Label: MINOS-EMI | 5% recovery record | First release: 2002 | Genre: Traditional greek music, world

Yiannis Parios is the ideal singer for the traditional songs of the greek islands. This nice CD includes the 18 most popular "nisiotika" greek dancing rhythms. Best Easter wishes for all my friends, with beautiful greek traditional music. Enjoy.

Yiannis Parios - A boat to sail [The 18 most beautiful songs of the Greek islands] (2012)

TRACKLIST
01. Armenaki
02. I told you and I tell you again (Sto pa ke sto xanaleo)
03. Pervolaria
04. Thalassa
05. Sala sala
06. Ntari ntari
07. Who my baby (Pios moro mou pios)
08. Wedding song (Tou gamou)
09. Maoukas
10. At Paros and at Naxos (Stin Paro ke sti Naxo)
11. Eri eri
12. Song from Ikaria (Ikariotiko)
13. Yianta
14. Osier (Ligaria)
15. Show up at the window (Sto parathiri provale)
16. I am thirsty (Eho mia dipsa)
17. Dance dance (Horepste horepste)
18. Let's go to a place (Ela na pame s' ena meros)

Exact Audio Copy V1.0 beta 3 from 29. August 2011

EAC extraction logfile from 14. April 2012, 18:30

Yiannis Parios / Mia varka gia na pas apenanti

Used drive : HL-DT-STDVDRAM GH10N Adapter: 1 ID: 1

Read mode : Secure
Utilize accurate stream : Yes
Defeat audio cache : Yes
Make use of C2 pointers : No

Read offset correction : 667
Overread into Lead-In and Lead-Out : No
Fill up missing offset samples with silence : Yes
Delete leading and trailing silent blocks : No
Null samples used in CRC calculations : Yes
Used interface : Native Win32 interface for Win NT & 2000

Used output format : User Defined Encoder
Selected bitrate : 1024 kBit/s
Quality : High
Add ID3 tag : Yes
Command line compressor : C:\Program Files\Exact Audio Copy New\Flac\flac.exe
Additional command line options : -V -5 -T "artist=%artist%" -T "title=%title%" -T "album=%albumtitle%" -T "tracknumber=%tracknr2%" -T "genre=%genre%" -5 %source%


TOC of the extracted CD

Track | Start | Length | Start sector | End sector
––––––––––––––––––––––––––––-
1 | 0:00.00 | 3:16.05 | 0 | 14704
2 | 3:16.05 | 4:20.73 | 14705 | 34277
3 | 7:37.03 | 2:51.33 | 34278 | 47135
4 | 10:28.36 | 3:31.70 | 47136 | 63030
5 | 14:00.31 | 2:57.70 | 63031 | 76375
6 | 16:58.26 | 3:53.50 | 76376 | 93900
7 | 20:52.01 | 2:26.23 | 93901 | 104873
8 | 23:18.24 | 3:36.22 | 104874 | 121095
9 | 26:54.46 | 3:08.71 | 121096 | 135266
10 | 30:03.42 | 3:33.66 | 135267 | 151307
11 | 33:37.33 | 3:09.41 | 151308 | 165523
12 | 36:46.74 | 2:49.14 | 165524 | 178212
13 | 39:36.13 | 2:36.12 | 178213 | 189924
14 | 42:12.25 | 2:28.44 | 189925 | 201068
15 | 44:40.69 | 3:52.24 | 201069 | 218492
16 | 48:33.18 | 3:51.15 | 218493 | 235832
17 | 52:24.33 | 2:23.18 | 235833 | 246575
18 | 54:47.51 | 2:42.13 | 246576 | 258738


Range status and errors

Selected range

Filename R:\EAC Rips\GREEK\Yannis Parios\2001 Yiannis Parios - Mia varka gia na pas apenanti\Yiannis Parios - Mia varka gia na pas apenanti.wav

Peak level 97.7 %
Extraction speed 2.0 X
Range quality 99.9 %
Test CRC 29AA866D
Copy CRC 29AA866D
Copy OK

No errors occurred


AccurateRip summary

Track 1 not present in database
Track 2 not present in database
Track 3 not present in database
Track 4 not present in database
Track 5 not present in database
Track 6 not present in database
Track 7 not present in database
Track 8 not present in database
Track 9 not present in database
Track 10 not present in database
Track 11 not present in database
Track 12 not present in database
Track 13 not present in database
Track 14 not present in database
Track 15 not present in database
Track 16 not present in database
Track 17 not present in database
Track 18 not present in database

None of the tracks are present in the AccurateRip database

End of status report

–– CUETools DB Plugin V2.1.3

[CTDB TOCID: KvcX8LrgH78WqY25z_zeYW7v7Qk-] disk not present in database, Submit result: KvcX8LrgH78WqY25z_zeYW7v7Qk- has been uploaded


==== Log checksum 6A490636350AA7E4114C0C2C8C421426B82CB1258CBEC936E653B62A3433DF23 ====