Subcategories

Passengers (Brian Eno and U2) - Original Soundtracks 1 (1995) {Polygram-Island Records 524 166-2}

Posted By: ruskaval
Passengers (Brian Eno and U2) - Original Soundtracks 1 (1995) {Polygram-Island Records 524 166-2}

Passengers (Brian Eno and U2) - Original Soundtracks 1 (1995) {Polygram-Island Records 524 166-2}
XLD rip (secure mode) | FLAC (tracks)+CUE+LOG -> 323 Mb | MP3 @320 -> 137 Mb
Full Artwork @ 300 dpi (png) -> 37 Mb | 5% repair rar
© 1995 Polygram / Island Records / Mercury | 524 166-2
Rock / Electronic / Alternative / Ambient / Experimental

Passengers is a collaboration between U2 and Brian Eno, so it should come as no surprise that the music on Original Soundtracks 1 is an extension of U2's last album, Zooropa. Under Eno's influence, the group incorporates more ambient electronic soundscapes, which unravel over the course of the album. In fact, Original Soundtracks 1 sounds more like a Brian Eno album than a U2 release, except when the band's knack for anthemic pop songwriting shines through every once and a while.

The most affecting example of this is "Miss Sarajevo," a slowly pulsating and melancholy collaboration with Luciano Pavarotti, who makes the middle eight soar. Equally impressive is the sweeping "Your Blue Room," which stands as one of U2's finest ballads. Nevertheless, the heart of the album is in its instrumentals, where the band – particularly the Edge and Eno – manages to keep the constantly shifting sonic colors and textures involving and intriguing.
Passengers (Brian Eno and U2) - Original Soundtracks 1 (1995) {Polygram-Island Records 524 166-2}


tracklist:
01 - United Colours
02 - Slug
03 - Your Blue Room
04 - Always Forever Now
05 - A Different Kind of Blue
06 - Beach Sequence
07 - Miss Sarajevo
08 - Ito Okashi
09 - One Minute Warning
10 - Corpse (These Chains Are Way Too Long)
11 - Elvis Ate America
12 - Plot 180
13 - Theme from the Swan
14 - Theme from Let's Go Native

Produced By: Brian Eno

X Lossless Decoder version 20130720 (144.0)

XLD extraction logfile from 2013-08-21 10:18:54 +1000

Passengers / Original Soundtracks 1

Used drive : PIONEER BD-RW BDR-207D (revision 1.20)
Media type : Pressed CD

Ripper mode : XLD Secure Ripper
Disable audio cache : OK for the drive with a cache less than 1375KiB
Make use of C2 pointers : NO
Read offset correction : 667
Max retry count : 100
Gap status : Analyzed, Appended (except HTOA)

TOC of the extracted CD
Track | Start | Length | Start sector | End sector
––––––––––––––––––––––––––––-
1 | 00:00:00 | 05:31:10 | 0 | 24834
2 | 05:31:10 | 04:41:32 | 24835 | 45941
3 | 10:12:42 | 05:27:73 | 45942 | 70539
4 | 15:40:40 | 06:23:40 | 70540 | 99304
5 | 22:04:05 | 02:02:00 | 99305 | 108454
6 | 24:06:05 | 03:31:15 | 108455 | 124294
7 | 27:37:20 | 05:40:35 | 124295 | 149829
8 | 33:17:55 | 03:24:60 | 149830 | 165189
9 | 36:42:40 | 04:39:55 | 165190 | 186169
10 | 41:22:20 | 03:34:57 | 186170 | 202276
11 | 44:57:02 | 03:00:38 | 202277 | 215814
12 | 47:57:40 | 03:40:65 | 215815 | 232379
13 | 51:38:30 | 03:24:00 | 232380 | 247679
14 | 55:02:30 | 03:07:00 | 247680 | 261704

List of alternate offset correction values
# | Absolute | Relative | Confidence
–––––––––––––––––––––
1 | 2035 | 1368 | 96
2 | 714 | 47 | 26
3 | 1087 | 420 | 2

AccurateRip Summary (DiscID: 00209193-0153b469-cf0da10e)
Track 01 : OK (v1+v2, confidence 19/143)
Track 02 : OK (v1+v2, confidence 19/143)
Track 03 : OK (v1+v2, confidence 19/142)
Track 04 : OK (v1+v2, confidence 19/143)
Track 05 : OK (v1+v2, confidence 19/143)
Track 06 : OK (v1+v2, confidence 19/142)
Track 07 : OK (v1+v2, confidence 19/143)
Track 08 : OK (v1+v2, confidence 19/141)
Track 09 : OK (v1+v2, confidence 19/141)
Track 10 : OK (v1+v2, confidence 19/142)
Track 11 : OK (v1+v2, confidence 19/143)
Track 12 : OK (v1+v2, confidence 19/143)
Track 13 : OK (v1+v2, confidence 19/142)
Track 14 : OK (v1+v2, confidence 19/138)
->All tracks accurately ripped.

All Tracks
Album gain : -3.94 dB
Peak : 1.000000
Statistics
Read error : 0
Jitter error (maybe fixed) : 0
Retry sector count : 0
Damaged sector count : 0

Track 01
Filename : /Users/Ian/Music/To Do/Passengers - Original Soundtracks 1 (1995) [FLAC]/01 - United Colours.flac
Pre-gap length : 00:02:00

Track gain : -3.10 dB
Peak : 1.000000
CRC32 hash (test run) : 2A39FF3E
CRC32 hash : 2A39FF3E
CRC32 hash (skip zero) : 5B00027F
AccurateRip v1 signature : 24754634
AccurateRip v2 signature : 439BD8FA
->Accurately ripped (v1+v2, confidence 14+5/143)
Statistics
Read error : 0
Jitter error (maybe fixed) : 0
Retry sector count : 0
Damaged sector count : 0

Track 02
Filename : /Users/Ian/Music/To Do/Passengers - Original Soundtracks 1 (1995) [FLAC]/02 - Slug.flac

Track gain : -3.87 dB
Peak : 1.000000
CRC32 hash (test run) : 3DAC8129
CRC32 hash : 3DAC8129
CRC32 hash (skip zero) : 35EFE340
AccurateRip v1 signature : 84E57ADA
AccurateRip v2 signature : 51DD6CA7
->Accurately ripped (v1+v2, confidence 14+5/143)
Statistics
Read error : 0
Jitter error (maybe fixed) : 0
Retry sector count : 0
Damaged sector count : 0

Track 03
Filename : /Users/Ian/Music/To Do/Passengers - Original Soundtracks 1 (1995) [FLAC]/03 - Your Blue Room.flac

Track gain : -5.13 dB
Peak : 1.000000
CRC32 hash (test run) : 4F376E60
CRC32 hash : 4F376E60
CRC32 hash (skip zero) : 383DC871
AccurateRip v1 signature : 3A6526E4
AccurateRip v2 signature : 1D83D420
->Accurately ripped (v1+v2, confidence 14+5/142)
Statistics
Read error : 0
Jitter error (maybe fixed) : 0
Retry sector count : 0
Damaged sector count : 0

Track 04
Filename : /Users/Ian/Music/To Do/Passengers - Original Soundtracks 1 (1995) [FLAC]/04 - Always Forever Now.flac

Track gain : -2.73 dB
Peak : 1.000000
CRC32 hash (test run) : 6F9824B7
CRC32 hash : 6F9824B7
CRC32 hash (skip zero) : 96FA1E68
AccurateRip v1 signature : 902AC371
AccurateRip v2 signature : 90026CEE
->Accurately ripped (v1+v2, confidence 14+5/143)
Statistics
Read error : 0
Jitter error (maybe fixed) : 0
Retry sector count : 0
Damaged sector count : 0

Track 05
Filename : /Users/Ian/Music/To Do/Passengers - Original Soundtracks 1 (1995) [FLAC]/05 - A Different Kind of Blue.flac

Track gain : 11.95 dB
Peak : 0.315613
CRC32 hash (test run) : 48C97F85
CRC32 hash : 48C97F85
CRC32 hash (skip zero) : 3AE232D8
AccurateRip v1 signature : 7D461E12
AccurateRip v2 signature : 41B8181B
->Accurately ripped (v1+v2, confidence 14+5/143)
Statistics
Read error : 0
Jitter error (maybe fixed) : 0
Retry sector count : 0
Damaged sector count : 0

Track 06
Filename : /Users/Ian/Music/To Do/Passengers - Original Soundtracks 1 (1995) [FLAC]/06 - Beach Sequence.flac

Track gain : 2.81 dB
Peak : 0.798553
CRC32 hash (test run) : 0C2583DB
CRC32 hash : 0C2583DB
CRC32 hash (skip zero) : 2C055DB7
AccurateRip v1 signature : 80EB8FD8
AccurateRip v2 signature : 99E9EE9E
->Accurately ripped (v1+v2, confidence 14+5/142)
Statistics
Read error : 0
Jitter error (maybe fixed) : 0
Retry sector count : 0
Damaged sector count : 0

Track 07
Filename : /Users/Ian/Music/To Do/Passengers - Original Soundtracks 1 (1995) [FLAC]/07 - Miss Sarajevo.flac

Track gain : -5.01 dB
Peak : 1.000000
CRC32 hash (test run) : F7976FA1
CRC32 hash : F7976FA1
CRC32 hash (skip zero) : 72E44DAB
AccurateRip v1 signature : 9784C179
AccurateRip v2 signature : 0BDCF251
->Accurately ripped (v1+v2, confidence 14+5/143)
Statistics
Read error : 0
Jitter error (maybe fixed) : 0
Retry sector count : 0
Damaged sector count : 0

Track 08
Filename : /Users/Ian/Music/To Do/Passengers - Original Soundtracks 1 (1995) [FLAC]/08 - Ito Okashi.flac

Track gain : 0.19 dB
Peak : 0.710205
CRC32 hash (test run) : 017C7F68
CRC32 hash : 017C7F68
CRC32 hash (skip zero) : 31D2C95B
AccurateRip v1 signature : 0A0517AA
AccurateRip v2 signature : 1297A40E
->Accurately ripped (v1+v2, confidence 14+5/141)
Statistics
Read error : 0
Jitter error (maybe fixed) : 0
Retry sector count : 0
Damaged sector count : 0

Track 09
Filename : /Users/Ian/Music/To Do/Passengers - Original Soundtracks 1 (1995) [FLAC]/09 - One Minute Warning.flac
Pre-gap length : 00:00:03

Track gain : -2.32 dB
Peak : 1.000000
CRC32 hash (test run) : 9D7E9E99
CRC32 hash : 9D7E9E99
CRC32 hash (skip zero) : B5DA792D
AccurateRip v1 signature : E10E6D91
AccurateRip v2 signature : B2AD628C
->Accurately ripped (v1+v2, confidence 14+5/141)
Statistics
Read error : 0
Jitter error (maybe fixed) : 0
Retry sector count : 0
Damaged sector count : 0

Track 10
Filename : /Users/Ian/Music/To Do/Passengers - Original Soundtracks 1 (1995) [FLAC]/10 - Corpse (These Chains Are Way Too Long).flac

Track gain : -3.72 dB
Peak : 1.000000
CRC32 hash (test run) : 0E8C05F9
CRC32 hash : 0E8C05F9
CRC32 hash (skip zero) : 83A45038
AccurateRip v1 signature : F6896BBC
AccurateRip v2 signature : AF706A96
->Accurately ripped (v1+v2, confidence 14+5/142)
Statistics
Read error : 0
Jitter error (maybe fixed) : 0
Retry sector count : 0
Damaged sector count : 0

Track 11
Filename : /Users/Ian/Music/To Do/Passengers - Original Soundtracks 1 (1995) [FLAC]/11 - Elvis Ate America.flac

Track gain : -7.95 dB
Peak : 1.000000
CRC32 hash (test run) : 2D1C8115
CRC32 hash : 2D1C8115
CRC32 hash (skip zero) : 0CEA1242
AccurateRip v1 signature : ADE2B8B0
AccurateRip v2 signature : 1A0D934A
->Accurately ripped (v1+v2, confidence 14+5/143)
Statistics
Read error : 0
Jitter error (maybe fixed) : 0
Retry sector count : 0
Damaged sector count : 0

Track 12
Filename : /Users/Ian/Music/To Do/Passengers - Original Soundtracks 1 (1995) [FLAC]/12 - Plot 180.flac
Pre-gap length : 00:01:33

Track gain : 1.30 dB
Peak : 0.607574
CRC32 hash (test run) : 5C736BF9
CRC32 hash : 5C736BF9
CRC32 hash (skip zero) : C2890467
AccurateRip v1 signature : 26CA144D
AccurateRip v2 signature : 30F8D351
->Accurately ripped (v1+v2, confidence 14+5/143)
Statistics
Read error : 0
Jitter error (maybe fixed) : 0
Retry sector count : 0
Damaged sector count : 0

Track 13
Filename : /Users/Ian/Music/To Do/Passengers - Original Soundtracks 1 (1995) [FLAC]/13 - Theme from the Swan.flac

Track gain : 7.47 dB
Peak : 0.347504
CRC32 hash (test run) : 27FC1D38
CRC32 hash : 27FC1D38
CRC32 hash (skip zero) : 9B81163D
AccurateRip v1 signature : A807C524
AccurateRip v2 signature : 6B7F56D4
->Accurately ripped (v1+v2, confidence 14+5/142)
Statistics
Read error : 0
Jitter error (maybe fixed) : 0
Retry sector count : 0
Damaged sector count : 0

Track 14
Filename : /Users/Ian/Music/To Do/Passengers - Original Soundtracks 1 (1995) [FLAC]/14 - Theme from Let's Go Native.flac

Track gain : -1.47 dB
Peak : 1.000000
CRC32 hash (test run) : D15AA47E
CRC32 hash : D15AA47E
CRC32 hash (skip zero) : 54C4372B
AccurateRip v1 signature : 043ADA79
AccurateRip v2 signature : D0A54177
->Accurately ripped (v1+v2, confidence 14+5/138)
Statistics
Read error : 0
Jitter error (maybe fixed) : 0
Retry sector count : 0
Damaged sector count : 0

No errors occurred

End of status report


Passengers (Brian Eno and U2) - Original Soundtracks 1 (1995) {Polygram-Island Records 524 166-2}

Passengers (Brian Eno and U2) - Original Soundtracks 1 (1995) {Polygram-Island Records 524 166-2}


All thanks goes to the original releaser!

Fripp & Eno - No Pussyfooting (1973) [2CD] {2008 Discipline Remaster Limited Edition}
Fripp & Eno - The Equatorial Stars (2004) {Opal}
Fripp & Eno - Evening Star (1975) {2008 Opal Remaster}
Fripp & Eno - Beyond Even 1992-2006 [2CD] (2007) {Opal Limited Edition}

Brian Eno - Apollo - Atmospheres & Soundtracks (1983) {2009 Virgin DSD Remaster}
Brian Eno - Discreet Music (1975) {2009 Virgin DSD Remaster}
Brian Eno - Ambient 1 Music For Airports (1978) {2009 Virgin DSD Remaster}
Brian Eno - Taking Tiger Mountain (By Strategy) (1974) {2009 Virgin DSD Remaster}

Fripp & Eno - Live In Paris 28.05.1975 [3CD BoxSet] (2014) {Opal}

Brian Eno - Another Green World (1975) {2009 Virgin DSD Remaster}
Brian Eno - Music For Films (1978) {2009 Virgin DSD Remaster}

Robert Fripp & Brian Eno - The Essential Fripp and Eno (1994) {Virgin}
Brian Eno & Peter Schwalm + Reiko Okano - Music for Onmyo-Ji (2000) [2CD] {Victor Entertainment Japan}

Brian Eno - Before And After Science (1977) {2004 Virgin DSD Remaster}
Brian Eno & Harold Budd - Ambient 2: The Plateaux Of Mirror (1980) {2009 Virgin DSD Remaster}
Brian Eno - Ambient 4: On Land (1982) {2009 Virgin DSD Remaster}
Brian Eno - Thursday Afternoon (1985) {2009 Virgin DSD Remaster}

Cluster and Eno - Cluster and Eno (1977) {Sky Records}

Brian Eno & Harold Budd - The Pearl (1984) {2009 Virgin DSD Remaster}
Brian Eno - More Music For Films (1976-83) {2009 Virgin DSD Remaster}

Cluster & Brian Eno - Old Land (1986) {Relativity Records}
Brian Eno & Jah Wobble - Spinner (1995) {All Saints Records}

Brian Eno - Neroli (1993) {All Saints Records}
Brian Eno - Nerve Net (1992) {Opal}
Brian Eno - The Drop (1997) {All Saints Records}

Brian Eno + David Byrne - My Life In The Bush Of Ghosts (1981) {2006 Nonesuch Remaster}

Brian Eno - Neroli (1993) [2CD] {2014 All Saints Records Deluxe Expanded Edition}
Brian Eno - The Drop (1997) [2CD] {2014 All Saints Records Deluxe Expanded Edition}
Brian Eno - Nerve Net (1992) [2CD] {2014 All Saints Records Deluxe Expanded Edition}
Brian Eno - The Shutov Assembly (1992) [2CD] {2014 All Saints Records Deluxe Expanded Edition}

Brian Eno - Another Day On Earth (2005) {Opal Japan Edition BRC-128}
Jon Hassell & Brian Eno - Fourth World, Vol. 1: Possible Musics (1980) {EG Records}
Brian Eno & Karl Hyde - High Life (2014) {Opal}
Jon Hassell featuring Brian Eno - Fourth World Volume 2: Dream Theory In Malaya (1981) {EG Records EEGCD 13}
Brian Eno & Jan Peter Schwalm - Drawn From Life (2001) {Opal Limited}

Brian Eno & Karl Hyde - Someday World (2014) {Opal-Warp 2CD Special Edition}
Brian Eno - Vocal (1993) {3CD Box Set Virgin-EG Records ENOBX 2 SBM 20bit remaster rel 1999}
Brian Eno & Various Artists - Music For Films III (1988) {All Saints Records ASCD04 rel 1992}


NEXT -> more Brian Eno on the way…