Subcategories

Paul Horn, Stan Getz, Joe Farrell - The Great Jazz Gala '80 (1988)

Posted By: Domestos
Paul Horn, Stan Getz, Joe Farrell - The Great Jazz Gala '80 (1988)

Paul Horn, Stan Getz, Joe Farrell - The Great Jazz Gala '80 (1988)
EAC Rip | FLAC (tracks+.cue, log) ~ 359.39 Mb | 72:44 | Scans included
Bop, Swing | Label: Fortune (CD 3003)

Live at Midem with Stan Getz, Paul Horn, Mike Garson, and Jazz Gala '80 are a continuation of a new tradition at Midem — a performance and recording of major jazz artists and the up and coming international jazz stars at the world record convention. Stan Getz traveled from Fort Lauderdale, Florida, taking leave from a gig at Bubba's and arrived in Cannes with his musicians: Andy Leverne, Brian Bromberg, Chuck Loeb, Victor Jones, on the morning of the 23rd of January '80. The show and recording session were that evening taped with a twenty-four track mobile unit from Paris. Paul Horn was in Cannes for Midem, having traveled from his home in Canada. Sugar Blue and Patrick Artero arrived the day before by train from Paris, and Gayle Moran, Joe Farrell and Mike Garson suffered a time differential of nine hours between the South of France and their homes in Los Angeles. The show's form and substance took shape at the rehearsel. Jean Claude Ast, the French assistant producer orchestrated the complex rehearsel schedule with musicians and technical people staying at dozens of hotels in Cannes.

Bass – Brian Bromberg, Marc Michel
Drums – Humberto Pagnini, Victor Jones
Guitar – Chuck Loeb
Harmonica – Sugar Blue
Keyboards – Andy Laverne, Oliver Hutman
Mixed By – Heywood Collins, John Hoier
Piano – Mike Garson
Producer – Robert W. Schachner, Ron Moss
Trumpet, Flugelhorn, Tenor Saxophone – Patrick Artero

Track List:
1. Sony's Blues (Sugar Blue) 3'00
2. 500 Miles High (C. Corea/N. Porter) 11'45
3. Here's That Rainy Day (J. Van Heusen/J. Burke) 8'25
4. Time After Time (J. Styne/S. Cahm) 6'15
5. I'm Here For You (G. Moran) 5'35
6. Magic Spell (Garson/Samuels/Davids) 4'17
7. Rhapsody In Blue (George Gershwin) 8'22
8. Hits Medley (arranged by Mike Garson) 8'03
9. Lady Day (W. Shorter) 5'30
10. Billie's Bounce (Charlie Parker) 11 '30

Paul Horn, Stan Getz, Joe Farrell - The Great Jazz Gala '80 (1988)

Exact Audio Copy V1.3 from 2. September 2016

EAC extraction logfile from 4. September 2017, 20:21

Paul Horn, Stan Getz, Joe Farrell / The Great Jazz Gala '80

Used drive : HL-DT-STDVDRAM GSA-T50N Adapter: 1 ID: 0

Read mode : Secure
Utilize accurate stream : Yes
Defeat audio cache : Yes
Make use of C2 pointers : No

Read offset correction : 667
Overread into Lead-In and Lead-Out : No
Fill up missing offset samples with silence : Yes
Delete leading and trailing silent blocks : No
Null samples used in CRC calculations : Yes
Used interface : Native Win32 interface for Win NT & 2000
Gap handling : Appended to previous track

Used output format : User Defined Encoder
Selected bitrate : 1024 kBit/s
Quality : High
Add ID3 tag : No
Command line compressor : C:\Program Files\Exact Audio Copy\Flac\flac.exe
Additional command line options : -V -8 -T "Genre=%genre%" -T "Artist=%artist%" -T "Title=%title%" -T "Album=%albumtitle%" -T "Date=%year%" -T "Tracknumber=%tracknr%" %source% -o %dest%

TOC of the extracted CD

Track | Start | Length | Start sector | End sector
––––––––––––––––––––––––––––-
1 | 0:00.00 | 2:50.60 | 0 | 12809
2 | 2:50.60 | 11:56.63 | 12810 | 66572
3 | 14:47.48 | 8:38.42 | 66573 | 105464
4 | 23:26.15 | 6:05.08 | 105465 | 132847
5 | 29:31.23 | 5:19.72 | 132848 | 156844
6 | 34:51.20 | 4:25.58 | 156845 | 176777
7 | 39:17.03 | 8:03.45 | 176778 | 213047
8 | 47:20.48 | 8:07.37 | 213048 | 249609
9 | 55:28.10 | 5:27.08 | 249610 | 274142
10 | 60:55.18 | 11:47.15 | 274143 | 327182

Track 1

Filename C:\music\MG rips\Paul Horn, Stan Getz, Joe Farrell - The Great Jazz Gala '80 - 1988 (Fortune CD 3003) [FLAC]\01 - Sony's Blues.wav

Pre-gap length 0:00:02.00

Peak level 66.4 %
Extraction speed 2.3 X
Track quality 100.0 %
Test CRC 9A1B71EE
Copy CRC 9A1B71EE
Accurately ripped (confidence 4) [4ECD4369] (AR v2)
Copy OK

Track 2

Filename C:\music\MG rips\Paul Horn, Stan Getz, Joe Farrell - The Great Jazz Gala '80 - 1988 (Fortune CD 3003) [FLAC]\02 - 500 Miles High.wav

Peak level 72.8 %
Extraction speed 3.1 X
Track quality 100.0 %
Test CRC EED6F874
Copy CRC EED6F874
Accurately ripped (confidence 4) [8A8C64E9] (AR v2)
Copy OK

Track 3

Filename C:\music\MG rips\Paul Horn, Stan Getz, Joe Farrell - The Great Jazz Gala '80 - 1988 (Fortune CD 3003) [FLAC]\03 - Here's That Rainy Day.wav

Pre-gap length 0:00:02.44

Peak level 65.5 %
Extraction speed 3.3 X
Track quality 99.9 %
Test CRC F5381533
Copy CRC F5381533
Accurately ripped (confidence 4) [8E09ACBA] (AR v2)
Copy OK

Track 4

Filename C:\music\MG rips\Paul Horn, Stan Getz, Joe Farrell - The Great Jazz Gala '80 - 1988 (Fortune CD 3003) [FLAC]\04 - Time After Time.wav

Peak level 92.8 %
Extraction speed 3.7 X
Track quality 100.0 %
Test CRC 6FD98A71
Copy CRC 6FD98A71
Accurately ripped (confidence 4) [86024E80] (AR v2)
Copy OK

Track 5

Filename C:\music\MG rips\Paul Horn, Stan Getz, Joe Farrell - The Great Jazz Gala '80 - 1988 (Fortune CD 3003) [FLAC]\05 - I'm Here for You.wav

Peak level 67.0 %
Extraction speed 3.9 X
Track quality 100.0 %
Test CRC D448C6E6
Copy CRC D448C6E6
Accurately ripped (confidence 4) [D5072951] (AR v2)
Copy OK

Track 6

Filename C:\music\MG rips\Paul Horn, Stan Getz, Joe Farrell - The Great Jazz Gala '80 - 1988 (Fortune CD 3003) [FLAC]\06 - Magic Spell.wav

Peak level 72.3 %
Extraction speed 4.0 X
Track quality 100.0 %
Test CRC 79C9B3FA
Copy CRC 79C9B3FA
Accurately ripped (confidence 4) [E009B88D] (AR v2)
Copy OK

Track 7

Filename C:\music\MG rips\Paul Horn, Stan Getz, Joe Farrell - The Great Jazz Gala '80 - 1988 (Fortune CD 3003) [FLAC]\07 - Rhapsody in Blue.wav

Peak level 75.3 %
Extraction speed 4.4 X
Track quality 100.0 %
Test CRC DDF62F92
Copy CRC DDF62F92
Accurately ripped (confidence 4) [9F97C4DA] (AR v2)
Copy OK

Track 8

Filename C:\music\MG rips\Paul Horn, Stan Getz, Joe Farrell - The Great Jazz Gala '80 - 1988 (Fortune CD 3003) [FLAC]\08 - Hits Medley.wav

Peak level 82.6 %
Extraction speed 4.8 X
Track quality 100.0 %
Test CRC A0D746E3
Copy CRC A0D746E3
Accurately ripped (confidence 4) [C912B27E] (AR v2)
Copy OK

Track 9

Filename C:\music\MG rips\Paul Horn, Stan Getz, Joe Farrell - The Great Jazz Gala '80 - 1988 (Fortune CD 3003) [FLAC]\09 - Lady Day.wav

Peak level 92.1 %
Extraction speed 4.8 X
Track quality 100.0 %
Test CRC EA558BA2
Copy CRC EA558BA2
Accurately ripped (confidence 4) [6B345732] (AR v2)
Copy OK

Track 10

Filename C:\music\MG rips\Paul Horn, Stan Getz, Joe Farrell - The Great Jazz Gala '80 - 1988 (Fortune CD 3003) [FLAC]\10 - Billies Bounce.wav

Peak level 84.0 %
Extraction speed 5.1 X
Track quality 99.9 %
Test CRC 5D92449A
Copy CRC 5D92449A
Accurately ripped (confidence 4) [F3BEC448] (AR v2)
Copy OK

All tracks accurately ripped

No errors occurred

End of status report

==== Log checksum 6C79E6DF630BC98FA873DBAF113623569B5E98B1B3F2810D7C95E260A8F88787 ====

All thanks go to the Musicgate

More Music in My Blog
Follow My RSS Channel