Subcategories

Paul Brett Sage - Japanese Mini-LP's (3 Albums) [24bit Remastering '2007] RE-UP

Posted By: perfecta
Paul Brett Sage - Japanese Mini-LP's (3 Albums) [24bit Remastering '2007] RE-UP

Paul Brett Sage - Japanese Mini-LP's (3 Albums) [24bit Remastering '2007]
3x EAC-FLAC Images with CUEs & LOGs - 722 GB | Full PNG Scans | MP3 CBR 320 Kbps - 304 MB
Progressive Rock / Art Rock | TT - 130:54 minutes | Label: Air Mail Archive, Japan | Cat. # AIRAC-1332~4

Paul Brett is a classic rock guitarist. He played lead guitar with Strawbs, The Overlanders, The Crazy World of Arthur Brown, Elmer Gantry’s Velvet Opera, The Velvet Opera, Tintern Abbey, Fire, Roy Harper, Al Stewart, Lonnie Donegan, and switched to twelve string guitar in the 1970s. This cardboard sleeve reissue from Paul Brett's Sage features 24bit digital remastering from 2007 with bonus tracks, and deluxe mini LP jacket. Part of a three-album Paul Brett's Sage Cardboard sleeve reissue series featuring the albums "Paul Brett Sage", "Jubilation Foundry", and "Schizophrenia".


Paul Brett @ Wikipedia


Paul Brett's Sage - Japanese cardboard sleeve albums collection contains:


Paul Brett Sage - Japanese Mini-LP's (3 Albums) [24bit Remastering '2007] RE-UP

Paul Brett Sage - Paul Brett Sage (1970)
EAC-FLAC with CUE & LOG - 251 MB | Full Scans - 69 MB | MP3 CBR 320 Kbps - 101 MB
Running time - 43:20 minutes | Label: Air Mail Archive, Japan | Cat. # AIRAC-1332


Tracks:

01. 3D Mona Lisa
02. The Sun Died
03. Little Aztec Prince
04. Reason For Your Asking
05. Trophies Of War
06. The Tower
07. The Painter
08. Mediterranean Lazy Heat Wave
09. Warlock
10. Where Have All The Cowboys Gone [Bonus track]
11. One Night Stand [Bonus track]

allmusic.com says:
Tying together many of the musical threads of their day, Paul Brett Sage was a progressive band in the best sense of the word, with an adventurous sound that was accessible to all, though they never lost sight of their origins. The group grew out of the folk duo of guitarist/singer Paul Brett and percussionist Bob Voice, and their eponymous debut album sees Paul Brett Sage retain a folksy bend, which reaches grand agit-folk heights on "Trophies of War." Elsewhere, Brett's fiery licks and solos, particularly on the anthemic "3D Mona Lisa," paints rock right across the backwoods vista. Evocative flamenco-tinged guitar sizzles around "The Sun Died," while Brett's aggressive performance on both 12-string and electric guitar creates a "Warlock" worthy of the modern age. With the band's prominent use of percussion, Nicky Higginbottom's haunting flute, their strong melodies, and infectious choruses, Paul Brett Sage hovers between folk, rock, world, and pop; an album that deftly manages to be all things to all people.

Exact Audio Copy V1.0 beta 2 from 29. April 2011

EAC extraction logfile from 8. August 2011, 16:17

Paul Brett Sage / Paul Brett Sage

Used drive : HL-DT-STDVDRAM GSA-H60N Adapter: 2 ID: 0

Read mode : Secure
Utilize accurate stream : Yes
Defeat audio cache : Yes
Make use of C2 pointers : No

Read offset correction : 667
Overread into Lead-In and Lead-Out : No
Fill up missing offset samples with silence : Yes
Delete leading and trailing silent blocks : No
Null samples used in CRC calculations : Yes
Used interface : Native Win32 interface for Win NT & 2000

Used output format : Internal WAV Routines
Sample format : 44.100 Hz; 16 Bit; Stereo


TOC of the extracted CD

Track | Start | Length | Start sector | End sector
––––––––––––––––––––––––––––-
1 | 0:00.00 | 3:18.01 | 0 | 14850
2 | 3:18.01 | 3:52.71 | 14851 | 32321
3 | 7:10.72 | 4:21.54 | 32322 | 51950
4 | 11:32.51 | 4:02.19 | 51951 | 70119
5 | 15:34.70 | 3:42.16 | 70120 | 86785
6 | 19:17.11 | 5:02.50 | 86786 | 109485
7 | 24:19.61 | 4:05.06 | 109486 | 127866
8 | 28:24.67 | 3:13.31 | 127867 | 142372
9 | 31:38.23 | 5:50.01 | 142373 | 168623
10 | 37:28.24 | 3:05.15 | 168624 | 182513
11 | 40:33.39 | 2:46.71 | 182514 | 195034


Range status and errors

Selected range

Filename C:\Documents and Settings\Admin\Рабочий стол\Rip by ALLexxess\Paul Brett Sage\1970 Paul Brett Sage (Air Mail Archive Japan Mini LP CD 2007)\Paul Brett Sage - Paul Brett Sage.wav

Peak level 96.6 %
Extraction speed 5.7 X
Range quality 100.0 %
Test CRC CF011838
Copy CRC CF011838
Copy OK

No errors occurred


AccurateRip summary

Track 1 accurately ripped (confidence 2) [000B0DB0] (AR v1)
Track 2 accurately ripped (confidence 2) [7FD4702E] (AR v1)
Track 3 accurately ripped (confidence 2) [E41D91A2] (AR v1)
Track 4 accurately ripped (confidence 2) [C24A3D21] (AR v1)
Track 5 accurately ripped (confidence 2) [27649B0F] (AR v1)
Track 6 accurately ripped (confidence 2) [833C33F0] (AR v1)
Track 7 accurately ripped (confidence 2) [315623D6] (AR v1)
Track 8 accurately ripped (confidence 2) [9BB4F8CE] (AR v1)
Track 9 accurately ripped (confidence 2) [C49B2614] (AR v1)
Track 10 accurately ripped (confidence 2) [881D3B4A] (AR v1)
Track 11 accurately ripped (confidence 2) [0AF33B55] (AR v1)

All tracks accurately ripped

End of status report

==== Log checksum EBAFDA4625C53598D05D53E8EA27CE08A6B918CA325BFF6CA26161E6269EEC25 ====



_______________________________________________________


Paul Brett Sage - Japanese Mini-LP's (3 Albums) [24bit Remastering '2007] RE-UP

Paul Brett Sage - Jubilation Foundry (1971)
EAC-FLAC with CUE & LOG - 255 MB | Full Scans - 66 MB | MP3 CBR 320 Kbps - 117 MB
Running time - 50:26 minutes | Label: Air Mail Archive, Japan | Cat. # AIRAC-1333


Tracks:

01. Cottage Made For Two
02. Hold My Hand Mother
03. Pasadena Days
04. Keeper Of My Heart
05. Goodbye Forever
06. Good Old-Fashioned Funky Kind Of Music
07. Bits
08. I Fell So Far
09. Written In Winter
10. Tuesday Evening
11. Help Me Jesus
12. Jubilation Foundry
13. Bits
14. Everlasting Butterfly
15. Savannah Ladies
16. To Everyman (Freedom)

allmusic.com says:
Nicky Higginbottom departed Paul Brett's Sage after the release of the band's eponymous debut album, and with her went the haunting flute that gave much of the album such a rich, pastoral sound. But the band was already moving in a new direction, exploring rock's roots and the genre's many permutations. Jubilation Foundry welds Sage's varied influences onto their sleeves, from "Cottage Made for Two," an homage to the Everly Brothers, to the gospel fired "Help Me Jesus" and the Stax inspired "Hold My Hand Mother." There are tributes to Southern blues and Southern rock, nods to singer/songwriters Cat Stevens and Harry Nilsson, and even a tip of the hat to the Beatles. With the group here sporting rich harmonies, the emphasis is on great songs in a variety of musical veins and moods, with singalong choruses, memorable melodies, and flashy musicianship evident throughout the album.

Exact Audio Copy V1.0 beta 2 from 29. April 2011

EAC extraction logfile from 8. August 2011, 21:30

Paul Brett Sage / Jubilation Foundry

Used drive : HL-DT-STDVDRAM GSA-H60N Adapter: 2 ID: 0

Read mode : Secure
Utilize accurate stream : Yes
Defeat audio cache : Yes
Make use of C2 pointers : No

Read offset correction : 667
Overread into Lead-In and Lead-Out : No
Fill up missing offset samples with silence : Yes
Delete leading and trailing silent blocks : No
Null samples used in CRC calculations : Yes
Used interface : Native Win32 interface for Win NT & 2000

Used output format : Internal WAV Routines
Sample format : 44.100 Hz; 16 Bit; Stereo


TOC of the extracted CD

Track | Start | Length | Start sector | End sector
––––––––––––––––––––––––––––-
1 | 0:00.00 | 2:35.25 | 0 | 11649
2 | 2:35.25 | 3:00.28 | 11650 | 25177
3 | 5:35.53 | 3:16.72 | 25178 | 39949
4 | 8:52.50 | 3:45.08 | 39950 | 56832
5 | 12:37.58 | 3:03.37 | 56833 | 70594
6 | 15:41.20 | 4:22.46 | 70595 | 90290
7 | 20:03.66 | 0:34.19 | 90291 | 92859
8 | 20:38.10 | 3:08.24 | 92860 | 106983
9 | 23:46.34 | 2:55.38 | 106984 | 120146
10 | 26:41.72 | 2:26.39 | 120147 | 131135
11 | 29:08.36 | 4:16.13 | 131136 | 150348
12 | 33:24.49 | 4:51.34 | 150349 | 172207
13 | 38:16.08 | 0:58.58 | 172208 | 176615
14 | 39:14.66 | 3:37.35 | 176616 | 192925
15 | 42:52.26 | 3:16.12 | 192926 | 207637
16 | 46:08.38 | 4:17.04 | 207638 | 226916


Range status and errors

Selected range

Filename C:\Documents and Settings\Admin\Рабочий стол\Rip by ALLexxess\Paul Brett Sage\1971 Jubilation Foundry (Air Mail Archive Japan Mini LP CD 2007)\Paul Brett Sage - Jubilation Foundry.wav

Peak level 93.3 %
Extraction speed 5.9 X
Range quality 99.9 %
Test CRC B9756266
Copy CRC B9756266
Copy OK

No errors occurred


AccurateRip summary

Track 1 accurately ripped (confidence 1) [5DD31797] (AR v1)
Track 2 accurately ripped (confidence 1) [6C0797CE] (AR v1)
Track 3 accurately ripped (confidence 1) [AE3D1D24] (AR v1)
Track 4 accurately ripped (confidence 1) [F5CA70F4] (AR v1)
Track 5 accurately ripped (confidence 1) [94FF1E7C] (AR v1)
Track 6 accurately ripped (confidence 1) [6803E6E3] (AR v1)
Track 7 accurately ripped (confidence 1) [85127589] (AR v1)
Track 8 accurately ripped (confidence 1) [7AA2E7B2] (AR v1)
Track 9 accurately ripped (confidence 1) [8E68373A] (AR v1)
Track 10 accurately ripped (confidence 1) [76A46774] (AR v1)
Track 11 accurately ripped (confidence 1) [09791E85] (AR v1)
Track 12 accurately ripped (confidence 1) [1EF2BE88] (AR v1)
Track 13 accurately ripped (confidence 1) [C169255B] (AR v1)
Track 14 accurately ripped (confidence 1) [2D8DCD47] (AR v1)
Track 15 accurately ripped (confidence 1) [113BB225] (AR v1)
Track 16 accurately ripped (confidence 1) [6D12197A] (AR v1)

All tracks accurately ripped

End of status report

==== Log checksum 14B1B3D65B92F42FC3FF9A83CC016CE53858436DE3F11E108FF00C1DBE72EFDB ====



________________________________________________


Paul Brett Sage - Japanese Mini-LP's (3 Albums) [24bit Remastering '2007] RE-UP

Paul Brett Sage - Schizophrenia (1972)
EAC-FLAC with CUE & LOG - 214 MB | Full Scans - 77 MB | MP3 CBR 320 Kbps - 87 MB
Running time - 37:07 minutes | Label: Air Mail Archive, Japan | Cat. # AIRAC-1334


Tracks:

01. Custom Angel Man
02. Charlene
03. Song Of Life - Song Of Death
04. Slow Down Ma!
05. Saviour Of The World
06. Limp Willie
07. Tale Of A Rainy Night
08. Take Me Back And I Will Love You
09. Autumn
10. Make It Over
11. Bee
12. Dahlia

allmusic.com says:
Paul Brett Sage's second full-length, Jubilation Foundry, was a rocking affair that danced delightfully from rock's roots in blues and R&B to its many contemporary nooks and crannies. With their follow-up, 1972's Schizophrenia, PBS dove into the harder side of rock, quite a feat for a group that featured a plethora of percussion but no drummer; although one was brought in for the driving "Slow Down Ma!." But as "Custom Angel Man" proved, Sage could rock like a Band of Gypsies even without one. However, it was Southern rockers and jam bands that were the group's strongest influences, and on "Charlene" they bring the two together. Imagine the Allmans fronting the Band to get the idea. The instrumental "Limp Willie," in contrast, features great dueling acoustic guitars, until the song flops over into Grateful Dead territory. "Take Me Back I Will Love You" sounds just like Pink Floyd, minus all their pomposity and self-indulgence, and is one of the album highlights. And there's plenty more of those within, from the gorgeous harmonies and acoustic guitars that stream across "Savior of the World" and "Tale of a Rainy Night" to the bluesy show-stopper "Make It Over." But as far afield as PBS seemed to have wandered from their folkie roots and for all their use of electric guitars, the many acoustic elements that initially defined their sound remain, giving the band and this set a sound entirely unlike anything else from the time. Routinely labeled acid folk and progressive rock, in fact, Sage were pop/rockers working in a thoroughly unique medium, creating a sound that still thrills today.

Exact Audio Copy V1.0 beta 2 from 29. April 2011

EAC extraction logfile from 8. August 2011, 15:37

Paul Brett Sage / Schizophrenia

Used drive : HL-DT-STDVDRAM GSA-H60N Adapter: 2 ID: 0

Read mode : Secure
Utilize accurate stream : Yes
Defeat audio cache : Yes
Make use of C2 pointers : No

Read offset correction : 667
Overread into Lead-In and Lead-Out : No
Fill up missing offset samples with silence : Yes
Delete leading and trailing silent blocks : No
Null samples used in CRC calculations : Yes
Used interface : Native Win32 interface for Win NT & 2000

Used output format : Internal WAV Routines
Sample format : 44.100 Hz; 16 Bit; Stereo


TOC of the extracted CD

Track | Start | Length | Start sector | End sector
––––––––––––––––––––––––––––-
1 | 0:00.00 | 2:34.38 | 0 | 11587
2 | 2:34.38 | 3:06.26 | 11588 | 25563
3 | 5:40.64 | 2:44.11 | 25564 | 37874
4 | 8:25.00 | 2:58.58 | 37875 | 51282
5 | 11:23.58 | 3:38.62 | 51283 | 67694
6 | 15:02.45 | 1:41.03 | 67695 | 75272
7 | 16:43.48 | 3:02.63 | 75273 | 88985
8 | 19:46.36 | 4:12.64 | 88986 | 107949
9 | 23:59.25 | 4:42.62 | 107950 | 129161
10 | 28:42.12 | 3:10.15 | 129162 | 143426
11 | 31:52.27 | 1:01.27 | 143427 | 148028
12 | 32:53.54 | 4:13.58 | 148029 | 167061


Range status and errors

Selected range

Filename C:\Documents and Settings\Admin\Рабочий стол\Rip by ALLexxess\Paul Brett Sage\1972 Schizophrenia (Air Mail Archive Japan Mini LP CD 2007)\Paul Brett Sage - Schizophrenia.wav

Peak level 96.6 %
Extraction speed 5.5 X
Range quality 100.0 %
Test CRC 5CD26327
Copy CRC 5CD26327
Copy OK

No errors occurred


AccurateRip summary

Track 1 accurately ripped (confidence 1) [BF20AE51] (AR v1)
Track 2 accurately ripped (confidence 1) [E27F4E5E] (AR v1)
Track 3 accurately ripped (confidence 1) [EA2F9898] (AR v1)
Track 4 accurately ripped (confidence 1) [EE43744E] (AR v1)
Track 5 accurately ripped (confidence 1) [A71E79F7] (AR v1)
Track 6 accurately ripped (confidence 1) [FEEE59E0] (AR v1)
Track 7 accurately ripped (confidence 1) [6D22DF65] (AR v1)
Track 8 accurately ripped (confidence 1) [14DF6D51] (AR v1)
Track 9 accurately ripped (confidence 1) [FF74E9DC] (AR v1)
Track 10 accurately ripped (confidence 1) [F6377236] (AR v1)
Track 11 accurately ripped (confidence 1) [D895966A] (AR v1)
Track 12 accurately ripped (confidence 1) [4AF04F41] (AR v1)

All tracks accurately ripped

End of status report

==== Log checksum FABE44E3762AA641CE134A881F7BB11C9FCF462C36FB2148CA70FCEA1DF89FCD ====


All albums have been digitally remastered in 2007.
CD Mastering Engineer: Yoshiro Kumazaki.
Dynamic range(s): "11" for all CD's.
all thanks goes to ALLexxess!
Paul Brett Sage (1970)
FLAC lossless | Scans | MP3 320

Jubilation Foundry (1971)
FLAC lossless | Scans | MP3 320

Schizophrenia (1972)
FLAC lossless | Scans | MP3 320

Paul Brett Sage (1970)
FLAC lossless | Scans | MP3 320

Jubilation Foundry (1971)
FLAC lossless | Scans | MP3 320

Schizophrenia (1972)
FLAC lossless | Scans | MP3 320