Subcategories

Pauline Croze - Ne rien faire (2018)

Posted By: delpotro
Pauline Croze - Ne rien faire (2018)

Pauline Croze - Ne rien faire (2018)
XLD Rip | FLAC (tracks+log+.cue) - 214 Mb | MP3 CBR 320 kbps - 77 Mb | 00:33:44
Pop, Chanson, Female Vocal | Label: Vilmamusica

C’est en 2005 que j’ai découvert Pauline Croze, à l’occasion de la remise du Prix Constantin. Cette année-là, Anaïs faisait rire les salles avec son The Cheap Show, Nosfell exposait sa langue singulière, Bertrand Betsch chantait son plus grand succès, et Camille, victorieuse, menait la danse sur un fil. Pauline Croze, qui faisait partie des 10 nommés, venait interpréter son titre T’es beau. Quelques phrases que Michelle Morgan aurait pu rétorquer à Jean Gabin dans Le Quai des brumes : T’es beau / T’es beau parce que t’es courageux / De regarder dans le fond des yeux.

Suite à cette notoriété estampillée Nouvelle Scène Française, dont Pauline Croze faisait partie (avec Jeanne Cherhal, Albin de la Simone, etc), la jeune chanteuse a sorti dans la foulée un album passé plus inaperçu (Un bruit qui court). Et malgré un autre album réalisé par Edith Fambuena en 2012 (Le Prix de l’Eden), il faudra attendre 2016 et des reprises bossa nova pour la retrouver dans la lumière.

2018, Pauline Croze sort Ne rien faire, son cinquième album. L’escapade bossa nova semble avoir laissé quelques traces : les mélodies ont cette légèreté dont seuls les sentiments les plus furtifs ont le secret. Mais le propos ne l’est pas pour autant : le deuxième titre, Tu es partout, rend un vibrant hommage à sa mère.
Tracklist:
01. Fièvre
02. Tu es partout
03. Tu m'ballades
04. Ne rien faire
05. Olé
06. Elle n'ose pas
07. Fallait pas
08. Il y a
09. Tellement bien
10. L'élan

X Lossless Decoder version 20170729 (150.3)

XLD extraction logfile from 2018-05-20 11:26:18 +0200

Pauline Croze / Ne Rien Faire

Used drive : MATSHITA CD-RW CW-8123 (revision CA10)
Media type : Pressed CD

Ripper mode : XLD Secure Ripper
Disable audio cache : OK for the drive with a cache less than 1375KiB
Make use of C2 pointers : NO
Read offset correction : 102
Max retry count : 100
Gap status : Analyzed, Appended (except HTOA)

TOC of the extracted CD
Track | Start | Length | Start sector | End sector
––––––––––––––––––––––––––––-
1 | 00:00:00 | 03:02:11 | 0 | 13660
2 | 03:02:11 | 03:35:71 | 13661 | 29856
3 | 06:38:07 | 03:23:46 | 29857 | 45127
4 | 10:01:53 | 03:22:53 | 45128 | 60330
5 | 13:24:31 | 03:32:19 | 60331 | 76249
6 | 16:56:50 | 02:56:25 | 76250 | 89474
7 | 19:53:00 | 03:14:61 | 89475 | 104085
8 | 23:07:61 | 03:25:31 | 104086 | 119491
9 | 26:33:17 | 03:31:53 | 119492 | 135369
10 | 30:04:70 | 03:39:06 | 135370 | 151800

AccurateRip Summary
Disc not found in AccurateRip DB.

All Tracks
Album gain : -9.01 dB
Peak : 0.989075
Statistics
Read error : 0
Jitter error (maybe fixed) : 0
Retry sector count : 0
Damaged sector count : 0

Track 01
Filename : /Rip/Pauline Croze - Ne Rien Faire (2018) [FLAC]/01 Tu Es Partout.flac
Pre-gap length : 00:02:00

Track gain : -8.66 dB
Peak : 0.988617
CRC32 hash (test run) : 8EEF1788
CRC32 hash : 8EEF1788
CRC32 hash (skip zero) : E7B53160
AccurateRip v1 signature : 5C8BEE82
AccurateRip v2 signature : 0BE40629
->Track not present in AccurateRip database.
Statistics
Read error : 0
Jitter error (maybe fixed) : 0
Retry sector count : 0
Damaged sector count : 0

Track 02
Filename : /Rip/Pauline Croze - Ne Rien Faire (2018) [FLAC]/02 Fièvre.flac
Pre-gap length : 00:01:51

Track gain : -7.92 dB
Peak : 0.988525
CRC32 hash (test run) : B52AE9D6
CRC32 hash : B52AE9D6
CRC32 hash (skip zero) : 1384160D
AccurateRip v1 signature : 5642C3AB
AccurateRip v2 signature : 0D0B46D2
->Track not present in AccurateRip database.
Statistics
Read error : 0
Jitter error (maybe fixed) : 0
Retry sector count : 0
Damaged sector count : 0

Track 03
Filename : /Rip/Pauline Croze - Ne Rien Faire (2018) [FLAC]/03 Ne Rien Faire.flac
Pre-gap length : 00:01:51

Track gain : -9.48 dB
Peak : 0.988525
CRC32 hash (test run) : C861F2B4
CRC32 hash : C861F2B4
CRC32 hash (skip zero) : B62E5FB9
AccurateRip v1 signature : CE314B0A
AccurateRip v2 signature : 603023DA
->Track not present in AccurateRip database.
Statistics
Read error : 0
Jitter error (maybe fixed) : 0
Retry sector count : 0
Damaged sector count : 0

Track 04
Filename : /Rip/Pauline Croze - Ne Rien Faire (2018) [FLAC]/04 Elle N'ose Pas.flac
Pre-gap length : 00:00:49

Track gain : -9.42 dB
Peak : 0.988647
CRC32 hash (test run) : 7DD10D1F
CRC32 hash : 7DD10D1F
CRC32 hash (skip zero) : F6C54A60
AccurateRip v1 signature : EAB669B6
AccurateRip v2 signature : 0290D704
->Track not present in AccurateRip database.
Statistics
Read error : 0
Jitter error (maybe fixed) : 0
Retry sector count : 0
Damaged sector count : 0

Track 05
Filename : /Rip/Pauline Croze - Ne Rien Faire (2018) [FLAC]/05 L'élan.flac
Pre-gap length : 00:02:23

Track gain : -10.05 dB
Peak : 0.989075
CRC32 hash (test run) : 945A9375
CRC32 hash : 945A9375
CRC32 hash (skip zero) : 21FD954C
AccurateRip v1 signature : CDF1E976
AccurateRip v2 signature : A5F79D1C
->Track not present in AccurateRip database.
Statistics
Read error : 0
Jitter error (maybe fixed) : 0
Retry sector count : 0
Damaged sector count : 0

Track 06
Filename : /Rip/Pauline Croze - Ne Rien Faire (2018) [FLAC]/06 Olé.flac
Pre-gap length : 00:02:26

Track gain : -6.90 dB
Peak : 0.988586
CRC32 hash (test run) : 653F30C1
CRC32 hash : 653F30C1
CRC32 hash (skip zero) : 631A2F83
AccurateRip v1 signature : 6989869F
AccurateRip v2 signature : 1B7044D5
->Track not present in AccurateRip database.
Statistics
Read error : 0
Jitter error (maybe fixed) : 0
Retry sector count : 0
Damaged sector count : 0

Track 07
Filename : /Rip/Pauline Croze - Ne Rien Faire (2018) [FLAC]/07 Il Y A.flac
Pre-gap length : 00:01:52

Track gain : -7.58 dB
Peak : 0.988495
CRC32 hash (test run) : B8FC902F
CRC32 hash : B8FC902F
CRC32 hash (skip zero) : B07FDEAE
AccurateRip v1 signature : BB31A89B
AccurateRip v2 signature : F141C000
->Track not present in AccurateRip database.
Statistics
Read error : 0
Jitter error (maybe fixed) : 0
Retry sector count : 0
Damaged sector count : 0

Track 08
Filename : /Rip/Pauline Croze - Ne Rien Faire (2018) [FLAC]/08 Fallait Pas.flac
Pre-gap length : 00:01:02

Track gain : -9.88 dB
Peak : 0.988678
CRC32 hash (test run) : 97F9CB9E
CRC32 hash : 97F9CB9E
CRC32 hash (skip zero) : AD4F5603
AccurateRip v1 signature : CFCAE2D7
AccurateRip v2 signature : 2EC63947
->Track not present in AccurateRip database.
Statistics
Read error : 0
Jitter error (maybe fixed) : 0
Retry sector count : 0
Damaged sector count : 0

Track 09
Filename : /Rip/Pauline Croze - Ne Rien Faire (2018) [FLAC]/09 Tu M'balades.flac
Pre-gap length : 00:01:74

Track gain : -7.53 dB
Peak : 0.988892
CRC32 hash (test run) : A7F85C9E
CRC32 hash : A7F85C9E
CRC32 hash (skip zero) : 9614E262
AccurateRip v1 signature : 3848AC89
AccurateRip v2 signature : 2C596B33
->Track not present in AccurateRip database.
Statistics
Read error : 0
Jitter error (maybe fixed) : 0
Retry sector count : 0
Damaged sector count : 0

Track 10
Filename : /Rip/Pauline Croze - Ne Rien Faire (2018) [FLAC]/10 Tellement Bien.flac
Pre-gap length : 00:02:23

Track gain : -7.19 dB
Peak : 0.988556
CRC32 hash (test run) : 4D63E4C3
CRC32 hash : 4D63E4C3
CRC32 hash (skip zero) : CC6CCFBA
AccurateRip v1 signature : 191F7EF8
AccurateRip v2 signature : 8550F6F0
->Track not present in AccurateRip database.
Statistics
Read error : 0
Jitter error (maybe fixed) : 0
Retry sector count : 0
Damaged sector count : 0

No errors occurred

End of status report

––-BEGIN XLD SIGNATURE––-
hGyWKsrumRT.u1UNij.7SXDDdV6bHwe.ndbm4s.ze6r6b_jRW01aIFMj0dDfzQ1RRojPgHuTctrcS5NVVQD.bpAIkMvMEQZeciXmxFS
––-END XLD SIGNATURE––-

Thanks to the Original ripper jplaguna !