Subcategories

Paul Hindemith: Klavierstuecke · Piano Pieces (1987)

Posted By: peachfuzz
Paul Hindemith: Klavierstuecke · Piano Pieces (1987)

Paul Hindemith - Klavierstuecke · Piano Pieces (1987)
Classical | EAC (APE, CUE & LOG) | 133 MB

Good luck trying to find this one on the web or anywhere else for that matter. I couldn't even find a single review on this rare beauty. The works on this album are representative of Hindemith's playful satire on the anticanonical bundle that comes prepackaged with the Western tradition.

    Tracklist

    Tanz der Holzpuppen (Dance of the wooden dolls)

    1922 - Suite for piano, Op.26:
    1. Marsch
    2. Shimmy
    3. Nachtstueck
    4. Boston
    5. Ragtime


    Dance Pieces, Op.19:
    1. Maessig schnell, etwas unbeholfen vorzutragen
    2. Sehr lebhaft
    3. Maessig schnell
    4. Pantomime
    5. Sehr lebhaft


    Piano Music, Part one: Exercise in three pieces:
    1. Schnelle Viertel, durchau…
    2. Langsame Viertel
    3. Rondo. Aeusserst lebhaft …
Koch Records: 310 007 H1


Exact Audio Copy V0.99 prebeta 5 from 4. May 2009

EAC extraction logfile from 15. May 2009, 23:09

Paul Hindemith / Klavierstuecke - Piano Pieces

Used drive : BENQ DVD DD DW1640 Adapter: 1 ID: 0

Read mode : Secure
Utilize accurate stream : Yes
Defeat audio cache : Yes
Make use of C2 pointers : No

Read offset correction : 618
Overread into Lead-In and Lead-Out : No
Fill up missing offset samples with silence : Yes
Delete leading and trailing silent blocks : No
Null samples used in CRC calculations : No
Used interface : Native Win32 interface for Win NT & 2000

Used output format : Internal WAV Routines
Sample format : 44.100 Hz; 16 Bit; Stereo


TOC of the extracted CD

Track | Start | Length | Start sector | End sector
––––––––––––––––––––––––––––-
1 | 0:00.00 | 2:55.00 | 0 | 13124
2 | 2:55.00 | 1:36.25 | 13125 | 20349
3 | 4:31.25 | 3:10.25 | 20350 | 34624
4 | 7:41.50 | 5:34.50 | 34625 | 59724
5 | 13:16.25 | 4:04.62 | 59725 | 78086
6 | 17:21.12 | 2:13.63 | 78087 | 88124
7 | 19:35.00 | 1:42.12 | 88125 | 95786
8 | 21:17.12 | 1:16.63 | 95787 | 101549
9 | 22:34.00 | 2:42.50 | 101550 | 113749
10 | 25:16.50 | 4:21.25 | 113750 | 133349
11 | 29:38.00 | 1:22.00 | 133350 | 139499
12 | 31:00.00 | 3:04.00 | 139500 | 153299
13 | 34:04.00 | 3:37.25 | 153300 | 169599
14 | 37:41.25 | 2:23.00 | 169600 | 180324


Range status and errors

Selected range

Filename C:\Paul Hindemith - Klavierstuecke · Piano Pieces.wav

Peak level 79.7 %
Range quality 100.0 %
Copy CRC 7B55A15C
Copy OK

No errors occurred


AccurateRip summary

Track 1 accurately ripped (confidence 1) [99DDE84A]
Track 2 accurately ripped (confidence 1) [7C366965]
Track 3 accurately ripped (confidence 1) [AAE0A7CE]
Track 4 accurately ripped (confidence 1) [45B96FF7]
Track 5 accurately ripped (confidence 1) [9B08F9DE]
Track 6 accurately ripped (confidence 1) [88B790F6]
Track 7 accurately ripped (confidence 1) [93A976D7]
Track 8 accurately ripped (confidence 1) [3E1C872B]
Track 9 accurately ripped (confidence 1) [05F27EB5]
Track 10 accurately ripped (confidence 1) [24083B35]
Track 11 accurately ripped (confidence 1) [C793A034]
Track 12 accurately ripped (confidence 1) [5EDB7D20]
Track 13 accurately ripped (confidence 1) [A0283709]
Track 14 accurately ripped (confidence 1) [3782155D]

All tracks accurately ripped

End of status report

________________________
Paul Hindemith: Klavierstuecke · Piano Pieces (1987)
Download
(Updated 03/13/2010)

http://rapidshare.com/files/232378843/peachfuzz_koch310007-Klavierstuecke.rar

(3% recovery record included)