Subcategories

Works by Cage, Harrison, Rouse, Kurtz, Bazelon, Verplanck (1989)

Posted By: peachfuzz
Works by Cage, Harrison, Rouse, Kurtz, Bazelon, Verplanck (1989)

Works by Cage, Harrison, Rouse, Kurtz, Bazelon, Verplanck (1989)
Classical | EAC (APE, CUE & LOG) | 233 MB

One of the greatest contributions of twentieth-century American composers is the (re)emphasis of percussion. Drawing upon three fairly distinct roots—Asian influence, jazz and related Afro-Latin forms, and the experimental music movement—American composers have rediscovered percussion’s importance in relation to other global musical trends. A virtual “percussion renaissance” has influenced much of the contemporary composition since the composers on this disc began their work. The wide-ranging colors and textural possibilities of a percussion quartet are vividly displayed on this eclectic program of new and standard works for various combinations of mallet and percussion instruments.

    Tracklist

    John Cage

    Third Construction

    Eugene Kurtz
    Logo I

    J. (Billy) VerPlanck
    Petite Suite:
    I. One for Al
    II. For Marlene

    Irwin Bazelon
    Fourscore

    Christopher Rouse
    Ku-Ka-Ilimoku

    Lou Harrison
    Concerto for the Violin with Percussion Orchestra:
    I. Allegro, maestoso
    II. Largo, cantabile
    III. Allegro, vigoroso, poco presto

    Continuum Percussion Quartet
New World Records 80382


Exact Audio Copy V0.99 prebeta 3 from 28. July 2007

EAC extraction logfile from 7. May 2009, 19:29

Continuum Percu Quartet / Works by Cage, Harrison, Rouse, Kurtz, Bazelon, Verplanck

Used drive : BENQ DVD DD DW1640 Adapter: 1 ID: 0

Read mode : Secure
Utilize accurate stream : Yes
Defeat audio cache : Yes
Make use of C2 pointers : No

Read offset correction : 0
Overread into Lead-In and Lead-Out : No
Fill up missing offset samples with silence : Yes
Delete leading and trailing silent blocks : No
Null samples used in CRC calculations : No
Used interface : Native Win32 interface for Win NT & 2000

Used output format : Internal WAV Routines
Sample format : 44.100 Hz; 16 Bit; Stereo


TOC of the extracted CD

Track | Start | Length | Start sector | End sector
––––––––––––––––––––––––––––-
1 | 0:00.00 | 11:17.10 | 0 | 50784
2 | 11:17.10 | 14:37.50 | 50785 | 116609
3 | 25:54.60 | 2:17.12 | 116610 | 126896
4 | 28:11.72 | 3:32.63 | 126897 | 142859
5 | 31:44.60 | 8:46.57 | 142860 | 182366
6 | 40:31.42 | 5:34.65 | 182367 | 207481
7 | 46:06.32 | 8:23.35 | 207482 | 245241
8 | 54:29.67 | 7:30.55 | 245242 | 279046
9 | 62:00.47 | 4:19.55 | 279047 | 298526


Range status and errors

Selected range

Filename C:\Continuum Percu Quartet - Works by Cage, Harrison, Rouse, Kurtz, Bazelon, Verplanck\Continuum Percu Quartet.wav

Peak level 99.7 %
Range quality 99.9 %
Copy CRC FCFAC16C
Copy OK

No errors occurred

End of status report

________________________
Works by Cage, Harrison, Rouse, Kurtz, Bazelon, Verplanck (1989)
Download
(Updated 03/13/2010)

http://rapidshare.com/files/362758638/peachfuzz_nw382-continuum.part1.rar.html
http://rapidshare.com/files/362756776/peachfuzz_nw382-continuum.part2.rar.html
http://rapidshare.com/files/362756300/peachfuzz_nw382-continuum.part3.rar.html

(3% recovery record included)