Pere Ubu - Datapanik In The Year Zero (2009) {4CD Box Set Cooking Vinyl COOK CD 098 rec 1975-1982}

Posted By: ruskaval
Pere Ubu - Datapanik In The Year Zero (2009) {4CD Box Set Cooking Vinyl COOK CD 098 rec 1975-1982}

Pere Ubu - Datapanik In The Year Zero (2009) {4CD Box Set Cooking Vinyl COOK CD 098 rec 1975-1982}
EAC rip (secure mode) | FLAC (tracks)+CUE+LOG -> 1.97 Gb | MP3 @320 -> 831 Mb
Full Artwork @ 300 dpi (jpg) -> 143 Mb | 5% repair rar
© 1975-82, 2009 Cooking Vinyl | COOK CD 098
Rock / Experimental Rock / Psychedelic Rock / Avant-Garde / New Wave / Post Punk / American Underground

Pere Ubu's troubles with record companies are legendary within certain underground rock circles. In perhaps the most bizarre turn of events, the group's collected works of 1978-1982 – after being out of print for nearly a decade – were reissued by Geffen as a five-disc box set, Datapanik in the Year Zero. Named after the group's 1978 EP, the set is arranged chronologically and occasionally substitutes live versions for studio tracks, but that hardly matters – nearly every song the band recorded during the five-year time span is included.

In addition to the official Pere Ubu material, the box includes a disc of rare singles from early incarnations of Ubu and other Cleveland-area punk rockers like Rocket from the Tombs, 15-60-75, and Mirrors, which were released on David Thomas' independent record label. With this much material, it's safe to say that the set is a definitive retrospective. However, if you're simply interested in Pere Ubu, consider the set carefully before investing. Pere Ubu were indeed one of the most innovative and challenging bands of their era, which means that their music is an acquired taste. However, those willing to invest in the box will find a wealth of inventive, hard-edged avant rock & roll.
Pere Ubu - Datapanik In The Year Zero (2009) {4CD Box Set Cooking Vinyl COOK CD 098 rec 1975-1982}

The DIYZ box set was released in 1996 by Cooking Vinyl and Geffen in a 5-cd long box format. The constituent recordings were digitally transferred at 44.1khz/20-bit and eqed at Suma in 1994. Those masters became the basis a series of individual album releases on Cooking Vinyl in the late 90s.

The 2009 version of the box set contains the complete versions of the first five studio albums plus the Hearpen singles. Each cd comes in a full color, glossy cardboard sleeve replicating the artwork from the 1996 box. The 28-page booklet has been improved (better quality paper) and updated but is essentially the same.

For the 2009 re-issue the original 2-track, quarter-inch analog mix tapes were baked in the Suma oven to dry them out, re-transferred to digital at 192khz/24-bit resolution and then re-mastered in the same room and referencing to the same monitors on which they were originally mixed. The Modern Dance went through the same process except the transfer was accomplished at 96khz/24-bit. The masters are as follows:
The Modern Dance 2005 Master
Dub Housing 2008 Master
New Picnic Time 2008 Master
The Art Of Walking 2008 Master
Song Of The Bailing Man 2008 Master
Hearpen Singles 2008 Master

The booklet and packaging were redesigned and reconfigured by John Thompson.
Pere Ubu - Datapanik In The Year Zero (2009) {4CD Box Set Cooking Vinyl COOK CD 098 rec 1975-1982}


Track listing:

CD 1 - 1975-1977

1-01 30 Seconds Over Tokyo 6:23
1-02 Heart Of Darkness 4:46
1-03 Final Solution 5:00
1-04 Cloud 149 2:39
1-05 PUntitled 3:34
1-06 My Dark Ages 4:02
1-07 Heaven 3:07
1-08 Non-Alignment Pact 3:21
1-09 The Modern Dance 3:31
1-10 Laughing 4:37
1-11 Street Waves 3:07
1-12 Chinese Radiation 3:31
1-13 Life Stinks 1:55
1-14 Real World 4:03
1-15 Over My Head 3:54
1-16 Sentimental Journey 6:18
1-17 Humor Me 2:45
1-18 The Book Is On The Table 4:02

Pere Ubu - Datapanik In The Year Zero (2009) {4CD Box Set Cooking Vinyl COOK CD 098 rec 1975-1982}

Pere Ubu - Datapanik In The Year Zero (2009) {4CD Box Set Cooking Vinyl COOK CD 098 rec 1975-1982}


CD 2 - 1978-1979
2-01 Navvy 2:41
2-02 On The Surface 2:35
2-03 Dub Housing 3:40
2-04 Caligari's Mirror 3:49
2-05 Thriller! 4:36
2-06 I Will Wait 1:46
2-07 Drinking Wine Spodyody 2:45
2-08 Ubu Dance Party 4:47
2-09 Blow Daddy-o 3:39
2-10 Codex 4:55
2-11 The Fabulous Sequel 3:07
2-12 49 Guitars & One Girl 2:51
2-13 A Small Dark Cloud 5:50
2-14 Small Was Fast 3:39
2-15 All The Dogs Are Barking 3:02
2-16 One Less Worry 3:46
2-17 Make Hay 4:03
2-18 Goodbye 5:18
2-19 Voice Of The Sand 1:28
2-20 Kingdom Come 3:14

Pere Ubu - Datapanik In The Year Zero (2009) {4CD Box Set Cooking Vinyl COOK CD 098 rec 1975-1982}

Pere Ubu - Datapanik In The Year Zero (2009) {4CD Box Set Cooking Vinyl COOK CD 098 rec 1975-1982}


CD 3 - 1980-1982
3-01 Go 3:35
3-02 Rhapsody In Pink 3:35
3-03 Arabia 5:00
3-04 Young Miles In The Basement 3:00
3-05 Misery Goats 2:38
3-06 Loop 3:15
3-07 Rounder 3:25
3-08 Birdies 2:27
3-09 Lost In Art 5:12
3-10 Horses 2:36
3-11 Crush This Horn 3:02
3-12 The Long Walk Home 2:35
3-13 Use Of A Dog 3:19
3-14 Petrified 2:17
3-15 Stormy Weather 3:21
3-16 West Side Story 2:48
3-17 Thoughts That Go By Steam 3:50
3-18 Big Ed's Used Farms 2:25
3-19 A Day Such As This 7:20
3-20 The Vulgar Boatman Bird 2:50
3-21 My Hat 1:19
3-22 Horns Are A Dilemma 4:22

Pere Ubu - Datapanik In The Year Zero (2009) {4CD Box Set Cooking Vinyl COOK CD 098 rec 1975-1982}

Pere Ubu - Datapanik In The Year Zero (2009) {4CD Box Set Cooking Vinyl COOK CD 098 rec 1975-1982}


CD 4 - Terminal Drive
4-01 Foreign Bodies – The Incredible Truth 2:35
4-02 15-60-75 – It's In Imagination 4:43
4-03 Syd's Dance Band – Never Again 2:20
4-04 Carney* & Thomas – Sunset In The Antipodes 2:26
4-05 Home And Garden – (Please) Fix My Horn (My Brakes Don't Work) 3:24
4-06 Neptune's Car – Baking Bread 2:13
4-07 David Thomas – Atom Mind 2:29
4-08 Tripod Jimmie – Autumn Leaves 4:17
4-09 Friction – Dear Richard 5:56
4-10 Pressler* - Morgan – You're Gonna Watch Me 1:40
4-11 Rocket From The Tombs – Amphetamine 5:32
4-12 Mirrors – She Smiled Wild 3:57
4-13 Electric Eels – Jaguar Ride 1:46
4-14 Tom Herman – Steve Canyon Blues 4:17
4-15 Allen Ravenstine – Home Life 6:47
4-16 Rocket From The Tombs – 30 Seconds Over Tokyo 7:00
4-17 Pere Ubu – Heart Of Darkness 8:47
4-18 Pere Ubu – Pushin Too Hard 3:54

Pere Ubu - Datapanik In The Year Zero (2009) {4CD Box Set Cooking Vinyl COOK CD 098 rec 1975-1982}

Pere Ubu - Datapanik In The Year Zero (2009) {4CD Box Set Cooking Vinyl COOK CD 098 rec 1975-1982}


Exact Audio Copy V1.0 beta 2 from 29. April 2011

EAC extraction logfile from 17. July 2013, 23:19

Pere Ubu / 1975-1977

Used drive : _NEC DVD_RW ND-4570A Adapter: 1 ID: 0

Read mode : Secure
Utilize accurate stream : Yes
Defeat audio cache : Yes
Make use of C2 pointers : No

Read offset correction : 48
Overread into Lead-In and Lead-Out : No
Fill up missing offset samples with silence : Yes
Delete leading and trailing silent blocks : No
Null samples used in CRC calculations : Yes
Used interface : Native Win32 interface for Win NT & 2000
Gap handling : Appended to previous track

Used output format : User Defined Encoder
Selected bitrate : 128 kBit/s
Quality : High
Add ID3 tag : No
Command line compressor : C:\Program Files (x86)\FLAC\flac.exe
Additional command line options : -8 -V -T "ARTIST=%artist%" -T "TITLE=%title%" -T "ALBUM=%albumtitle%" -T "DATE=%year%" -T "TRACKNUMBER=%tracknr%" -T "TOTALTRACKS=%numtracks%" -T "GENRE=%genre%" -T "ALBUMARTIST=%albumartist%" -T "ALBUM ARTIST=%albumartist%


TOC of the extracted CD

Track | Start | Length | Start sector | End sector
––––––––––––––––––––––––––––-
1 | 0:00.00 | 6:25.06 | 0 | 28880
2 | 6:25.06 | 4:48.18 | 28881 | 50498
3 | 11:13.24 | 5:01.61 | 50499 | 73134
4 | 16:15.10 | 2:40.49 | 73135 | 85183
5 | 18:55.59 | 3:36.16 | 85184 | 101399
6 | 22:32.00 | 4:04.01 | 101400 | 119700
7 | 26:36.01 | 3:08.48 | 119701 | 133848
8 | 29:44.49 | 3:22.46 | 133849 | 149044
9 | 33:07.20 | 3:32.39 | 149045 | 164983
10 | 36:39.59 | 4:39.38 | 164984 | 185946
11 | 41:19.22 | 3:09.14 | 185947 | 200135
12 | 44:28.36 | 3:32.64 | 200136 | 216099
13 | 48:01.25 | 1:57.17 | 216100 | 224891
14 | 49:58.42 | 4:04.74 | 224892 | 243265
15 | 54:03.41 | 3:55.72 | 243266 | 260962
16 | 57:59.38 | 6:20.11 | 260963 | 289473
17 | 64:19.49 | 2:46.46 | 289474 | 301969
18 | 67:06.20 | 4:01.46 | 301970 | 320090


Track 1

Filename H:\01 UPLOAD\Pere Ubu - Datapanik In The Year Zero (2009) [FLAC] (CD 1 - 1975-1977)\01 - 30 Seconds Over Tokyo.wav

Pre-gap length 0:00:02.00

Peak level 89.5 %
Extraction speed 5.0 X
Track quality 100.0 %
Test CRC 48551912
Copy CRC 48551912
Accurately ripped (confidence 3) [F01620D7] (AR v1)
Copy OK

Track 2

Filename H:\01 UPLOAD\Pere Ubu - Datapanik In The Year Zero (2009) [FLAC] (CD 1 - 1975-1977)\02 - Heart Of Darkness.wav

Pre-gap length 0:00:02.00

Peak level 98.4 %
Extraction speed 5.5 X
Track quality 100.0 %
Test CRC F49CB233
Copy CRC F49CB233
Accurately ripped (confidence 3) [918187F7] (AR v1)
Copy OK

Track 3

Filename H:\01 UPLOAD\Pere Ubu - Datapanik In The Year Zero (2009) [FLAC] (CD 1 - 1975-1977)\03 - Final Solution.wav

Pre-gap length 0:00:02.00

Peak level 94.5 %
Extraction speed 6.0 X
Track quality 100.0 %
Test CRC 56A45622
Copy CRC 56A45622
Accurately ripped (confidence 3) [C2E1871B] (AR v1)
Copy OK

Track 4

Filename H:\01 UPLOAD\Pere Ubu - Datapanik In The Year Zero (2009) [FLAC] (CD 1 - 1975-1977)\04 - Cloud 149.wav

Pre-gap length 0:00:02.00

Peak level 93.9 %
Extraction speed 4.5 X
Track quality 99.9 %
Test CRC 95F92213
Copy CRC 95F92213
Accurately ripped (confidence 3) [DB228630] (AR v1)
Copy OK

Track 5

Filename H:\01 UPLOAD\Pere Ubu - Datapanik In The Year Zero (2009) [FLAC] (CD 1 - 1975-1977)\05 - Untitled.wav

Pre-gap length 0:00:02.00

Peak level 94.1 %
Extraction speed 0.0 X
Track quality 97.2 %
Test CRC 6F11C552
Copy CRC 6F11C552
Cannot be verified as accurate (confidence 3) [2664CCAA], AccurateRip returned [3D424916] (AR v2)
Copy OK

Track 6

Filename H:\01 UPLOAD\Pere Ubu - Datapanik In The Year Zero (2009) [FLAC] (CD 1 - 1975-1977)\06 - My Dark Ages.wav

Pre-gap length 0:00:02.00

Peak level 98.4 %
Extraction speed 5.6 X
Track quality 99.9 %
Test CRC E9EC611C
Copy CRC E9EC611C
Accurately ripped (confidence 3) [8AEB185C] (AR v1)
Copy OK

Track 7

Filename H:\01 UPLOAD\Pere Ubu - Datapanik In The Year Zero (2009) [FLAC] (CD 1 - 1975-1977)\07 - Heaven.wav

Pre-gap length 0:00:02.00

Peak level 98.4 %
Extraction speed 6.7 X
Track quality 100.0 %
Test CRC 894A8490
Copy CRC 894A8490
Accurately ripped (confidence 3) [A5E6A3DA] (AR v1)
Copy OK

Track 8

Filename H:\01 UPLOAD\Pere Ubu - Datapanik In The Year Zero (2009) [FLAC] (CD 1 - 1975-1977)\08 - Non-Alignment Pact.wav

Pre-gap length 0:00:02.00

Peak level 99.4 %
Extraction speed 7.0 X
Track quality 100.0 %
Test CRC E8FA025C
Copy CRC E8FA025C
Accurately ripped (confidence 3) [3DC038D6] (AR v1)
Copy OK

Track 9

Filename H:\01 UPLOAD\Pere Ubu - Datapanik In The Year Zero (2009) [FLAC] (CD 1 - 1975-1977)\09 - The Modern Dance.wav

Pre-gap length 0:00:02.00

Peak level 99.9 %
Extraction speed 7.3 X
Track quality 100.0 %
Test CRC C23082C0
Copy CRC C23082C0
Accurately ripped (confidence 3) [232589F0] (AR v1)
Copy OK

Track 10

Filename H:\01 UPLOAD\Pere Ubu - Datapanik In The Year Zero (2009) [FLAC] (CD 1 - 1975-1977)\10 - Laughing.wav

Pre-gap length 0:00:02.00

Peak level 99.8 %
Extraction speed 6.6 X
Track quality 99.9 %
Test CRC B9D7AD7A
Copy CRC B9D7AD7A
Accurately ripped (confidence 3) [86757E50] (AR v1)
Copy OK

Track 11

Filename H:\01 UPLOAD\Pere Ubu - Datapanik In The Year Zero (2009) [FLAC] (CD 1 - 1975-1977)\11 - Street Waves.wav

Pre-gap length 0:00:02.00

Peak level 100.0 %
Extraction speed 7.6 X
Track quality 100.0 %
Test CRC B423DBAD
Copy CRC B423DBAD
Accurately ripped (confidence 3) [70F6978D] (AR v1)
Copy OK

Track 12

Filename H:\01 UPLOAD\Pere Ubu - Datapanik In The Year Zero (2009) [FLAC] (CD 1 - 1975-1977)\12 - Chinese Radiation.wav

Pre-gap length 0:00:02.00

Peak level 98.8 %
Extraction speed 7.8 X
Track quality 100.0 %
Test CRC D1366477
Copy CRC D1366477
Accurately ripped (confidence 3) [C9F80E54] (AR v1)
Copy OK

Track 13

Filename H:\01 UPLOAD\Pere Ubu - Datapanik In The Year Zero (2009) [FLAC] (CD 1 - 1975-1977)\13 - Life Stinks.wav

Pre-gap length 0:00:02.00

Peak level 99.3 %
Extraction speed 7.0 X
Track quality 100.0 %
Test CRC 25054200
Copy CRC 25054200
Accurately ripped (confidence 3) [0E62617F] (AR v1)
Copy OK

Track 14

Filename H:\01 UPLOAD\Pere Ubu - Datapanik In The Year Zero (2009) [FLAC] (CD 1 - 1975-1977)\14 - Real World.wav

Pre-gap length 0:00:02.00

Peak level 99.9 %
Extraction speed 6.8 X
Track quality 99.9 %
Test CRC 7FB1279E
Copy CRC 7FB1279E
Accurately ripped (confidence 3) [BE5EC18E] (AR v1)
Copy OK

Track 15

Filename H:\01 UPLOAD\Pere Ubu - Datapanik In The Year Zero (2009) [FLAC] (CD 1 - 1975-1977)\15 - Over My Head.wav

Pre-gap length 0:00:02.00

Peak level 99.8 %
Extraction speed 8.4 X
Track quality 100.0 %
Test CRC 8EF7DB16
Copy CRC 8EF7DB16
Accurately ripped (confidence 3) [6A94D87D] (AR v1)
Copy OK

Track 16

Filename H:\01 UPLOAD\Pere Ubu - Datapanik In The Year Zero (2009) [FLAC] (CD 1 - 1975-1977)\16 - Sentimental Journey.wav

Pre-gap length 0:00:02.00

Peak level 99.7 %
Extraction speed 8.0 X
Track quality 99.9 %
Test CRC 55EB3580
Copy CRC 55EB3580
Accurately ripped (confidence 3) [7DFEA848] (AR v1)
Copy OK

Track 17

Filename H:\01 UPLOAD\Pere Ubu - Datapanik In The Year Zero (2009) [FLAC] (CD 1 - 1975-1977)\17 - Humor Me.wav

Pre-gap length 0:00:02.00

Peak level 99.1 %
Extraction speed 6.2 X
Track quality 99.9 %
Test CRC 2EDADDA5
Copy CRC 2EDADDA5
Accurately ripped (confidence 3) [F08F12D3] (AR v1)
Copy OK

Track 18

Filename H:\01 UPLOAD\Pere Ubu - Datapanik In The Year Zero (2009) [FLAC] (CD 1 - 1975-1977)\18 - The Book Is On The Table.wav

Pre-gap length 0:00:02.00

Peak level 98.4 %
Extraction speed 8.6 X
Track quality 100.0 %
Test CRC EEFB7257
Copy CRC EEFB7257
Accurately ripped (confidence 3) [E1AEF03F] (AR v1)
Copy OK


17 track(s) accurately ripped
1 track(s) could not be verified as accurate

Some tracks could not be verified as accurate

No errors occurred

End of status report

==== Log checksum A6DC4624E86CACBE693EE632BD6E36911BC1DEEA2FDE9796B42E9C269926CE50 ====

Exact Audio Copy V1.0 beta 2 from 29. April 2011

EAC extraction logfile from 20. July 2013, 15:18

Pere Ubu / 1978 - 1979

Used drive : _NEC DVD_RW ND-4570A Adapter: 1 ID: 0

Read mode : Secure
Utilize accurate stream : Yes
Defeat audio cache : Yes
Make use of C2 pointers : No

Read offset correction : 48
Overread into Lead-In and Lead-Out : No
Fill up missing offset samples with silence : Yes
Delete leading and trailing silent blocks : No
Null samples used in CRC calculations : Yes
Used interface : Native Win32 interface for Win NT & 2000
Gap handling : Appended to previous track

Used output format : User Defined Encoder
Selected bitrate : 128 kBit/s
Quality : High
Add ID3 tag : No
Command line compressor : C:\Program Files (x86)\FLAC\flac.exe
Additional command line options : -8 -V -T "ARTIST=%artist%" -T "TITLE=%title%" -T "ALBUM=%albumtitle%" -T "DATE=%year%" -T "TRACKNUMBER=%tracknr%" -T "TOTALTRACKS=%numtracks%" -T "GENRE=%genre%" -T "ALBUMARTIST=%albumartist%" -T "ALBUM ARTIST=%albumartist%


TOC of the extracted CD

Track | Start | Length | Start sector | End sector
––––––––––––––––––––––––––––-
1 | 0:00.00 | 2:42.44 | 0 | 12193
2 | 2:42.44 | 2:38.10 | 12194 | 24053
3 | 5:20.54 | 3:42.09 | 24054 | 40712
4 | 9:02.63 | 3:52.25 | 40713 | 58137
5 | 12:55.13 | 4:39.31 | 58138 | 79093
6 | 17:34.44 | 1:48.13 | 79094 | 87206
7 | 19:22.57 | 2:46.42 | 87207 | 99698
8 | 22:09.24 | 4:49.47 | 99699 | 121420
9 | 26:58.71 | 3:43.35 | 121421 | 138180
10 | 30:42.31 | 4:57.69 | 138181 | 160524
11 | 35:40.25 | 3:08.13 | 160525 | 174637
12 | 38:48.38 | 2:53.31 | 174638 | 187643
13 | 41:41.69 | 5:50.56 | 187644 | 213949
14 | 47:32.50 | 3:41.01 | 213950 | 230525
15 | 51:13.51 | 3:04.63 | 230526 | 244388
16 | 54:18.39 | 3:48.19 | 244389 | 261507
17 | 58:06.58 | 4:04.46 | 261508 | 279853
18 | 62:11.29 | 5:20.03 | 279854 | 303856
19 | 67:31.32 | 1:28.05 | 303857 | 310461
20 | 68:59.37 | 3:13.52 | 310462 | 324988


Track 1

Filename H:\01 UPLOAD\Pere Ubu - Datapanik In The Year Zero BOX CD2 (2009) [FLAC]\01 - Navvy.wav

Pre-gap length 0:00:02.00

Peak level 99.7 %
Extraction speed 4.3 X
Track quality 100.0 %
Test CRC BE32545B
Copy CRC BE32545B
Accurately ripped (confidence 3) [207B8E71] (AR v1)
Copy OK

Track 2

Filename H:\01 UPLOAD\Pere Ubu - Datapanik In The Year Zero BOX CD2 (2009) [FLAC]\02 - On The Surface.wav

Pre-gap length 0:00:02.00

Peak level 99.7 %
Extraction speed 4.6 X
Track quality 100.0 %
Test CRC 1125BA5C
Copy CRC 1125BA5C
Accurately ripped (confidence 3) [ABC56DC5] (AR v1)
Copy OK

Track 3

Filename H:\01 UPLOAD\Pere Ubu - Datapanik In The Year Zero BOX CD2 (2009) [FLAC]\03 - Dub Housing.wav

Pre-gap length 0:00:03.00

Peak level 99.3 %
Extraction speed 4.2 X
Track quality 99.9 %
Test CRC EC4D5E2B
Copy CRC EC4D5E2B
Accurately ripped (confidence 3) [0250B9A5] (AR v1)
Copy OK

Track 4

Filename H:\01 UPLOAD\Pere Ubu - Datapanik In The Year Zero BOX CD2 (2009) [FLAC]\04 - Caligari's Mirror.wav

Pre-gap length 0:00:02.00

Peak level 99.0 %
Extraction speed 5.6 X
Track quality 100.0 %
Test CRC 59DB1A66
Copy CRC 59DB1A66
Accurately ripped (confidence 3) [DF5E91D1] (AR v1)
Copy OK

Track 5

Filename H:\01 UPLOAD\Pere Ubu - Datapanik In The Year Zero BOX CD2 (2009) [FLAC]\05 - Thriller!.wav

Pre-gap length 0:00:03.00

Peak level 99.6 %
Extraction speed 6.1 X
Track quality 100.0 %
Test CRC C49B15CE
Copy CRC C49B15CE
Accurately ripped (confidence 3) [310F5A0F] (AR v1)
Copy OK

Track 6

Filename H:\01 UPLOAD\Pere Ubu - Datapanik In The Year Zero BOX CD2 (2009) [FLAC]\06 - I Will Wait.wav

Pre-gap length 0:00:03.00

Peak level 99.6 %
Extraction speed 5.3 X
Track quality 100.0 %
Test CRC BA9D919F
Copy CRC BA9D919F
Accurately ripped (confidence 3) [0F0DE418] (AR v1)
Copy OK

Track 7

Filename H:\01 UPLOAD\Pere Ubu - Datapanik In The Year Zero BOX CD2 (2009) [FLAC]\07 - Drinking Wine Spodyody.wav

Pre-gap length 0:00:02.00

Peak level 99.6 %
Extraction speed 6.0 X
Track quality 100.0 %
Test CRC 9021081F
Copy CRC 9021081F
Accurately ripped (confidence 3) [60C9F6EC] (AR v1)
Copy OK

Track 8

Filename H:\01 UPLOAD\Pere Ubu - Datapanik In The Year Zero BOX CD2 (2009) [FLAC]\08 - Ubu Dance Party.wav

Pre-gap length 0:00:02.00

Peak level 99.7 %
Extraction speed 6.8 X
Track quality 100.0 %
Test CRC D956710A
Copy CRC D956710A
Accurately ripped (confidence 3) [03642600] (AR v1)
Copy OK

Track 9

Filename H:\01 UPLOAD\Pere Ubu - Datapanik In The Year Zero BOX CD2 (2009) [FLAC]\09 - Blow Daddy-o.wav

Pre-gap length 0:00:03.00

Peak level 99.4 %
Extraction speed 6.9 X
Track quality 100.0 %
Test CRC E3122E69
Copy CRC E3122E69
Accurately ripped (confidence 3) [731386D2] (AR v1)
Copy OK

Track 10

Filename H:\01 UPLOAD\Pere Ubu - Datapanik In The Year Zero BOX CD2 (2009) [FLAC]\10 - Codex.wav

Pre-gap length 0:00:04.00

Peak level 97.5 %
Extraction speed 7.5 X
Track quality 100.0 %
Test CRC 8DACBC4F
Copy CRC 8DACBC4F
Accurately ripped (confidence 3) [9EDC6FEE] (AR v1)
Copy OK

Track 11

Filename H:\01 UPLOAD\Pere Ubu - Datapanik In The Year Zero BOX CD2 (2009) [FLAC]\11 - The Fabulous Sequel.wav

Pre-gap length 0:00:03.00

Peak level 99.7 %
Extraction speed 7.2 X
Track quality 100.0 %
Test CRC B8E06C26
Copy CRC B8E06C26
Accurately ripped (confidence 3) [950A895E] (AR v1)
Copy OK

Track 12

Filename H:\01 UPLOAD\Pere Ubu - Datapanik In The Year Zero BOX CD2 (2009) [FLAC]\12 - 49 Guitars & One Girl.wav

Pre-gap length 0:00:01.00

Peak level 99.7 %
Extraction speed 7.3 X
Track quality 100.0 %
Test CRC F3561FF9
Copy CRC F3561FF9
Accurately ripped (confidence 3) [8CCF0DE5] (AR v1)
Copy OK

Track 13

Filename H:\01 UPLOAD\Pere Ubu - Datapanik In The Year Zero BOX CD2 (2009) [FLAC]\13 - A Small Dark Cloud.wav

Pre-gap length 0:00:02.00

Peak level 93.7 %
Extraction speed 8.3 X
Track quality 100.0 %
Test CRC 759D38DB
Copy CRC 759D38DB
Accurately ripped (confidence 3) [F3CB6E4F] (AR v1)
Copy OK

Track 14

Filename H:\01 UPLOAD\Pere Ubu - Datapanik In The Year Zero BOX CD2 (2009) [FLAC]\14 - Small Was Fast.wav

Pre-gap length 0:00:01.00

Peak level 99.7 %
Extraction speed 8.0 X
Track quality 100.0 %
Test CRC 47CC49F0
Copy CRC 47CC49F0
Accurately ripped (confidence 3) [694748C4] (AR v1)
Copy OK

Track 15

Filename H:\01 UPLOAD\Pere Ubu - Datapanik In The Year Zero BOX CD2 (2009) [FLAC]\15 - All The Dogs Are Barking.wav

Pre-gap length 0:00:02.00

Peak level 99.7 %
Extraction speed 8.0 X
Track quality 100.0 %
Test CRC 9F2BFAD1
Copy CRC 9F2BFAD1
Accurately ripped (confidence 3) [3597F94A] (AR v1)
Copy OK

Track 16

Filename H:\01 UPLOAD\Pere Ubu - Datapanik In The Year Zero BOX CD2 (2009) [FLAC]\16 - One Less Worry.wav

Pre-gap length 0:00:02.00

Peak level 99.7 %
Extraction speed 8.4 X
Track quality 100.0 %
Test CRC 49B1F266
Copy CRC 49B1F266
Accurately ripped (confidence 3) [4E620795] (AR v1)
Copy OK

Track 17

Filename H:\01 UPLOAD\Pere Ubu - Datapanik In The Year Zero BOX CD2 (2009) [FLAC]\17 - Make Hay.wav

Pre-gap length 0:00:02.00

Peak level 97.8 %
Extraction speed 8.7 X
Track quality 100.0 %
Test CRC 9A8B5C85
Copy CRC 9A8B5C85
Accurately ripped (confidence 3) [CB36F64E] (AR v1)
Copy OK

Track 18

Filename H:\01 UPLOAD\Pere Ubu - Datapanik In The Year Zero BOX CD2 (2009) [FLAC]\18 - Goodbye.wav

Pre-gap length 0:00:02.00

Peak level 98.9 %
Extraction speed 6.4 X
Track quality 99.9 %
Test CRC CD75E310
Copy CRC CD75E310
Accurately ripped (confidence 3) [C44B975C] (AR v1)
Copy OK

Track 19

Filename H:\01 UPLOAD\Pere Ubu - Datapanik In The Year Zero BOX CD2 (2009) [FLAC]\19 - The Voice Of The Sand.wav

Pre-gap length 0:00:02.00

Peak level 57.7 %
Extraction speed 4.1 X
Track quality 100.0 %
Test CRC E6F2C894
Copy CRC E6F2C894
Accurately ripped (confidence 3) [186E3222] (AR v1)
Copy OK

Track 20

Filename H:\01 UPLOAD\Pere Ubu - Datapanik In The Year Zero BOX CD2 (2009) [FLAC]\20 - Kingdom Come.wav

Peak level 99.5 %
Extraction speed 3.9 X
Track quality 99.9 %
Test CRC 81D83CBA
Copy CRC 81D83CBA
Accurately ripped (confidence 3) [8B702ED4] (AR v1)
Copy OK


All tracks accurately ripped

No errors occurred

End of status report

==== Log checksum E05BD36B3341CE3C222FA93EF4B1A7C1982CDC5259BAD4721A0921DB78D8C4AC ====

Exact Audio Copy V1.0 beta 3 from 29. August 2011

EAC extraction logfile from 25. June 2013, 17:36

Pere Ubu / 1980 - 1982

Used drive : HL-DT-STDVDRAM GSA-T50L Adapter: 0 ID: 1

Read mode : Secure
Utilize accurate stream : Yes
Defeat audio cache : Yes
Make use of C2 pointers : No

Read offset correction : 667
Overread into Lead-In and Lead-Out : No
Fill up missing offset samples with silence : Yes
Delete leading and trailing silent blocks : No
Null samples used in CRC calculations : Yes
Used interface : Native Win32 interface for Win NT & 2000
Gap handling : Appended to previous track

Used output format : User Defined Encoder
Selected bitrate : 32 kBit/s
Quality : High
Add ID3 tag : No
Command line compressor : C:\Programmi\FLAC\flac.exe
Additional command line options : -8 -V -T "ARTIST=%artist%" -T "TITLE=%title%" -T "ALBUM=%albumtitle%" -T "DATE=%year%" -T "TRACKNUMBER=%tracknr%" -T "TOTALTRACKS=%numtracks%" -T "GENRE=%genre%" -T "ALBUMARTIST=%albumartist%" -T "ALBUM ARTIST=%albumartist%" -T "COMMENT=EAC Secure Mode, Test & Copy, AccurateRip, FLAC -8" %source%


TOC of the extracted CD

Track | Start | Length | Start sector | End sector
––––––––––––––––––––––––––––-
1 | 0:00.00 | 3:38.37 | 0 | 16386
2 | 3:38.37 | 3:37.02 | 16387 | 32663
3 | 7:15.39 | 5:01.28 | 32664 | 55266
4 | 12:16.67 | 2:59.49 | 55267 | 68740
5 | 15:16.41 | 2:40.32 | 68741 | 80772
6 | 17:56.73 | 3:17.26 | 80773 | 95573
7 | 21:14.24 | 3:24.57 | 95574 | 110930
8 | 24:39.06 | 2:30.18 | 110931 | 122198
9 | 27:09.24 | 5:12.31 | 122199 | 145629
10 | 32:21.55 | 2:37.45 | 145630 | 157449
11 | 34:59.25 | 3:06.05 | 157450 | 171404
12 | 38:05.30 | 2:37.35 | 171405 | 183214
13 | 40:42.65 | 3:21.53 | 183215 | 198342
14 | 44:04.43 | 2:19.18 | 198343 | 208785
15 | 46:23.61 | 3:22.64 | 208786 | 223999
16 | 49:46.50 | 2:49.64 | 224000 | 236738
17 | 52:36.39 | 3:52.06 | 236739 | 254144
18 | 56:28.45 | 2:25.08 | 254145 | 265027
19 | 58:53.53 | 7:22.52 | 265028 | 298229
20 | 66:16.30 | 2:52.22 | 298230 | 311151
21 | 69:08.52 | 1:22.27 | 311152 | 317328
22 | 70:31.04 | 4:22.22 | 317329 | 337000


Track 1

Filename C:\Documents and Settings\Administrator\Documenti\UPLOAD\Pere Ubu - Datapanik In The Year Zero BOX CD3 (2009) [FLAC]\01 - Go.wav

Pre-gap length 0:00:02.00

Peak level 99.7 %
Extraction speed 2.4 X
Track quality 100.0 %
Test CRC E9DF8A86
Copy CRC E9DF8A86
Accurately ripped (confidence 5) [08E527AB] (AR v2)
Copy OK

Track 2

Filename C:\Documents and Settings\Administrator\Documenti\UPLOAD\Pere Ubu - Datapanik In The Year Zero BOX CD3 (2009) [FLAC]\02 - Rhapsody in Pink.wav

Pre-gap length 0:00:03.00

Peak level 87.3 %
Extraction speed 2.5 X
Track quality 100.0 %
Test CRC DC35C5B7
Copy CRC DC35C5B7
Accurately ripped (confidence 5) [9B568067] (AR v2)
Copy OK

Track 3

Filename C:\Documents and Settings\Administrator\Documenti\UPLOAD\Pere Ubu - Datapanik In The Year Zero BOX CD3 (2009) [FLAC]\03 - Arabia.wav

Pre-gap length 0:00:02.00

Peak level 81.5 %
Extraction speed 2.9 X
Track quality 100.0 %
Test CRC 92E0CE95
Copy CRC 92E0CE95
Accurately ripped (confidence 5) [27448E65] (AR v2)
Copy OK

Track 4

Filename C:\Documents and Settings\Administrator\Documenti\UPLOAD\Pere Ubu - Datapanik In The Year Zero BOX CD3 (2009) [FLAC]\04 - Young Miles In The Basement.wav

Pre-gap length 0:00:01.00

Peak level 92.2 %
Extraction speed 2.9 X
Track quality 100.0 %
Test CRC EBA72B61
Copy CRC EBA72B61
Accurately ripped (confidence 5) [1DF1E534] (AR v2)
Copy OK

Track 5

Filename C:\Documents and Settings\Administrator\Documenti\UPLOAD\Pere Ubu - Datapanik In The Year Zero BOX CD3 (2009) [FLAC]\05 - Misery Goats.wav

Peak level 99.7 %
Extraction speed 3.0 X
Track quality 100.0 %
Test CRC 92EC6DE3
Copy CRC 92EC6DE3
Accurately ripped (confidence 5) [E75016C6] (AR v2)
Copy OK

Track 6

Filename C:\Documents and Settings\Administrator\Documenti\UPLOAD\Pere Ubu - Datapanik In The Year Zero BOX CD3 (2009) [FLAC]\06 - Loop.wav

Pre-gap length 0:00:02.00

Peak level 94.2 %
Extraction speed 3.2 X
Track quality 100.0 %
Test CRC B48C7281
Copy CRC B48C7281
Accurately ripped (confidence 5) [2571FD70] (AR v2)
Copy OK

Track 7

Filename C:\Documents and Settings\Administrator\Documenti\UPLOAD\Pere Ubu - Datapanik In The Year Zero BOX CD3 (2009) [FLAC]\07 - Rounder.wav

Pre-gap length 0:00:02.00

Peak level 99.7 %
Extraction speed 3.3 X
Track quality 100.0 %
Test CRC 30160891
Copy CRC 30160891
Accurately ripped (confidence 5) [93821BF1] (AR v2)
Copy OK

Track 8

Filename C:\Documents and Settings\Administrator\Documenti\UPLOAD\Pere Ubu - Datapanik In The Year Zero BOX CD3 (2009) [FLAC]\08 - Birdies.wav

Peak level 99.3 %
Extraction speed 3.2 X
Track quality 100.0 %
Test CRC CEDAD11E
Copy CRC CEDAD11E
Accurately ripped (confidence 5) [DF1143A1] (AR v2)
Copy OK

Track 9

Filename C:\Documents and Settings\Administrator\Documenti\UPLOAD\Pere Ubu - Datapanik In The Year Zero BOX CD3 (2009) [FLAC]\09 - Lost In Art.wav

Pre-gap length 0:00:03.00

Peak level 99.7 %
Extraction speed 3.4 X
Track quality 99.9 %
Test CRC 69E9F41D
Copy CRC 69E9F41D
Accurately ripped (confidence 5) [E900DA2A] (AR v2)
Copy OK

Track 10

Filename C:\Documents and Settings\Administrator\Documenti\UPLOAD\Pere Ubu - Datapanik In The Year Zero BOX CD3 (2009) [FLAC]\10 - Horses.wav

Peak level 99.7 %
Extraction speed 3.5 X
Track quality 100.0 %
Test CRC F3D0E8DD
Copy CRC F3D0E8DD
Accurately ripped (confidence 5) [53D02168] (AR v2)
Copy OK

Track 11

Filename C:\Documents and Settings\Administrator\Documenti\UPLOAD\Pere Ubu - Datapanik In The Year Zero BOX CD3 (2009) [FLAC]\11 - Crush This Horn.wav

Pre-gap length 0:00:02.00

Peak level 98.5 %
Extraction speed 3.8 X
Track quality 100.0 %
Test CRC 01A845DE
Copy CRC 01A845DE
Accurately ripped (confidence 5) [A278F65A] (AR v2)
Copy OK

Track 12

Filename C:\Documents and Settings\Administrator\Documenti\UPLOAD\Pere Ubu - Datapanik In The Year Zero BOX CD3 (2009) [FLAC]\12 - The Long Walk Home.wav

Pre-gap length 0:00:04.00

Peak level 99.2 %
Extraction speed 3.8 X
Track quality 100.0 %
Test CRC FF7447C8
Copy CRC FF7447C8
Accurately ripped (confidence 5) [7C413343] (AR v2)
Copy OK

Track 13

Filename C:\Documents and Settings\Administrator\Documenti\UPLOAD\Pere Ubu - Datapanik In The Year Zero BOX CD3 (2009) [FLAC]\13 - Use Of A Dog.wav

Pre-gap length 0:00:02.00

Peak level 99.7 %
Extraction speed 4.0 X
Track quality 100.0 %
Test CRC 5294A1CD
Copy CRC 5294A1CD
Accurately ripped (confidence 5) [E7C534F1] (AR v2)
Copy OK

Track 14

Filename C:\Documents and Settings\Administrator\Documenti\UPLOAD\Pere Ubu - Datapanik In The Year Zero BOX CD3 (2009) [FLAC]\14 - Petrified.wav

Pre-gap length 0:00:03.00

Peak level 99.7 %
Extraction speed 3.9 X
Track quality 100.0 %
Test CRC CF5CEC11
Copy CRC CF5CEC11
Accurately ripped (confidence 5) [3586C75F] (AR v2)
Copy OK

Track 15

Filename C:\Documents and Settings\Administrator\Documenti\UPLOAD\Pere Ubu - Datapanik In The Year Zero BOX CD3 (2009) [FLAC]\15 - Stormy Weather.wav

Pre-gap length 0:00:02.00

Peak level 99.2 %
Extraction speed 3.6 X
Track quality 99.9 %
Test CRC B7E7EE6F
Copy CRC B7E7EE6F
Accurately ripped (confidence 5) [DB125184] (AR v2)
Copy OK

Track 16

Filename C:\Documents and Settings\Administrator\Documenti\UPLOAD\Pere Ubu - Datapanik In The Year Zero BOX CD3 (2009) [FLAC]\16 - West Side Story.wav

Pre-gap length 0:00:02.00

Peak level 99.7 %
Extraction speed 4.1 X
Track quality 100.0 %
Test CRC 1AB55FCE
Copy CRC 1AB55FCE
Accurately ripped (confidence 4) [B42A4C65] (AR v2)
Copy OK

Track 17

Filename C:\Documents and Settings\Administrator\Documenti\UPLOAD\Pere Ubu - Datapanik In The Year Zero BOX CD3 (2009) [FLAC]\17 - Thoughts That Go By Steam.wav

Pre-gap length 0:00:02.00

Peak level 99.5 %
Extraction speed 3.9 X
Track quality 99.9 %
Test CRC B2239BD9
Copy CRC B2239BD9
Accurately ripped (confidence 5) [5399B075] (AR v2)
Copy OK

Track 18

Filename C:\Documents and Settings\Administrator\Documenti\UPLOAD\Pere Ubu - Datapanik In The Year Zero BOX CD3 (2009) [FLAC]\18 - Big Ed's Used Farms.wav

Pre-gap length 0:00:02.00

Peak level 99.7 %
Extraction speed 3.5 X
Track quality 99.9 %
Test CRC 0A7DA2FD
Copy CRC 0A7DA2FD
Accurately ripped (confidence 5) [F0E83E40] (AR v2)
Copy OK

Track 19

Filename C:\Documents and Settings\Administrator\Documenti\UPLOAD\Pere Ubu - Datapanik In The Year Zero BOX CD3 (2009) [FLAC]\19 - A Day Such As This.wav

Peak level 99.7 %
Extraction speed 5.1 X
Track quality 100.0 %
Test CRC D189595D
Copy CRC D189595D
Accurately ripped (confidence 5) [F5036240] (AR v2)
Copy OK

Track 20

Filename C:\Documents and Settings\Administrator\Documenti\UPLOAD\Pere Ubu - Datapanik In The Year Zero BOX CD3 (2009) [FLAC]\20 - The Vulgar Boatman Bird.wav

Pre-gap length 0:00:03.00

Peak level 99.7 %
Extraction speed 3.9 X
Track quality 99.9 %
Test CRC FF8FEEE4
Copy CRC FF8FEEE4
Accurately ripped (confidence 5) [F42A8A5A] (AR v2)
Copy OK

Track 21

Filename C:\Documents and Settings\Administrator\Documenti\UPLOAD\Pere Ubu - Datapanik In The Year Zero BOX CD3 (2009) [FLAC]\21 - My Hat.wav

Pre-gap length 0:00:02.00

Peak level 99.7 %
Extraction speed 3.8 X
Track quality 100.0 %
Test CRC 26838038
Copy CRC 26838038
Accurately ripped (confidence 5) [254F8A2D] (AR v2)
Copy OK

Track 22

Filename C:\Documents and Settings\Administrator\Documenti\UPLOAD\Pere Ubu - Datapanik In The Year Zero BOX CD3 (2009) [FLAC]\22 - Horns Are A Dilemma.wav

Pre-gap length 0:00:03.00

Peak level 99.7 %
Extraction speed 4.5 X
Track quality 99.9 %
Test CRC 6783C6F6
Copy CRC 6783C6F6
Accurately ripped (confidence 5) [8E0E1AAC] (AR v2)
Copy OK


All tracks accurately ripped

No errors occurred

End of status report

==== Log checksum 2CDA8043423B047FC484DC095606FAA833F65A7C08F6F355AE5D6B8E42FE7145 ====

Exact Audio Copy V1.0 beta 3 from 29. August 2011

EAC extraction logfile from 25. June 2013, 19:41

Various / Terminal Drive

Used drive : HL-DT-STDVDRAM GSA-T50L Adapter: 0 ID: 1

Read mode : Secure
Utilize accurate stream : Yes
Defeat audio cache : Yes
Make use of C2 pointers : No

Read offset correction : 667
Overread into Lead-In and Lead-Out : No
Fill up missing offset samples with silence : Yes
Delete leading and trailing silent blocks : No
Null samples used in CRC calculations : Yes
Used interface : Native Win32 interface for Win NT & 2000
Gap handling : Appended to previous track

Used output format : User Defined Encoder
Selected bitrate : 32 kBit/s
Quality : High
Add ID3 tag : No
Command line compressor : C:\Programmi\FLAC\flac.exe
Additional command line options : -8 -V -T "ARTIST=%artist%" -T "TITLE=%title%" -T "ALBUM=%albumtitle%" -T "DATE=%year%" -T "TRACKNUMBER=%tracknr%" -T "TOTALTRACKS=%numtracks%" -T "GENRE=%genre%" -T "ALBUMARTIST=%albumartist%" -T "ALBUM ARTIST=%albumartist%" -T "COMMENT=EAC Secure Mode, Test & Copy, AccurateRip, FLAC -8" %source%


TOC of the extracted CD

Track | Start | Length | Start sector | End sector
––––––––––––––––––––––––––––-
1 | 0:00.00 | 2:36.73 | 0 | 11772
2 | 2:36.73 | 4:45.37 | 11773 | 33184
3 | 7:22.35 | 2:22.08 | 33185 | 43842
4 | 9:44.43 | 2:28.16 | 43843 | 54958
5 | 12:12.59 | 3:26.14 | 54959 | 70422
6 | 15:38.73 | 2:15.13 | 70423 | 80560
7 | 17:54.11 | 2:31.14 | 80561 | 91899
8 | 20:25.25 | 4:19.36 | 91900 | 111360
9 | 24:44.61 | 5:57.48 | 111361 | 138183
10 | 30:42.34 | 1:42.09 | 138184 | 145842
11 | 32:24.43 | 5:34.28 | 145843 | 170920
12 | 37:58.71 | 3:59.29 | 170921 | 188874
13 | 41:58.25 | 1:48.18 | 188875 | 196992
14 | 43:46.43 | 4:18.54 | 196993 | 216396
15 | 48:05.22 | 6:45.03 | 216397 | 246774
16 | 54:50.25 | 7:02.29 | 246775 | 278453
17 | 61:52.54 | 8:48.58 | 278454 | 318111
18 | 70:41.37 | 3:53.73 | 318112 | 335659


Track 1

Filename C:\Documents and Settings\Administrator\Documenti\UPLOAD\Pere Ubu - Datapanik In The Year Zero BOX CD4 (2009) [FLAC]\01 - Foreign Bodies - The Incredible Truth.wav

Pre-gap length 0:00:02.00

Peak level 81.6 %
Extraction speed 2.2 X
Track quality 100.0 %
Test CRC 18CBA3A6
Copy CRC 18CBA3A6
Accurately ripped (confidence 4) [73C0EEC6] (AR v2)
Copy OK

Track 2

Filename C:\Documents and Settings\Administrator\Documenti\UPLOAD\Pere Ubu - Datapanik In The Year Zero BOX CD4 (2009) [FLAC]\02 - 15-60-75 - It's In Imagination.wav

Pre-gap length 0:00:02.00

Peak level 100.0 %
Extraction speed 2.4 X
Track quality 99.9 %
Test CRC 4267A461
Copy CRC 4267A461
Accurately ripped (confidence 4) [CEDC4030] (AR v2)
Copy OK

Track 3

Filename C:\Documents and Settings\Administrator\Documenti\UPLOAD\Pere Ubu - Datapanik In The Year Zero BOX CD4 (2009) [FLAC]\03 - Syd's Dance Band - Never Again.wav

Pre-gap length 0:00:02.00

Peak level 100.0 %
Extraction speed 2.1 X
Track quality 99.9 %
Test CRC BDA70A78
Copy CRC BDA70A78
Accurately ripped (confidence 4) [8086B154] (AR v2)
Copy OK

Track 4

Filename C:\Documents and Settings\Administrator\Documenti\UPLOAD\Pere Ubu - Datapanik In The Year Zero BOX CD4 (2009) [FLAC]\04 - Carney & Thomas - Sunset In The Antipodes.wav

Pre-gap length 0:00:02.00

Peak level 82.2 %
Extraction speed 2.7 X
Track quality 100.0 %
Test CRC 158FEB25
Copy CRC 158FEB25
Accurately ripped (confidence 4) [52101AA7] (AR v2)
Copy OK

Track 5

Filename C:\Documents and Settings\Administrator\Documenti\UPLOAD\Pere Ubu - Datapanik In The Year Zero BOX CD4 (2009) [FLAC]\05 - Home and Garden - (please) FIX MY HORN (my brakes don't work).wav

Pre-gap length 0:00:02.00

Peak level 100.0 %
Extraction speed 2.6 X
Track quality 99.9 %
Test CRC 544ED8F3
Copy CRC 544ED8F3
Accurately ripped (confidence 4) [98D51FEB] (AR v2)
Copy OK

Track 6

Filename C:\Documents and Settings\Administrator\Documenti\UPLOAD\Pere Ubu - Datapanik In The Year Zero BOX CD4 (2009) [FLAC]\06 - Neptune's Car - Baking Bread.wav

Pre-gap length 0:00:02.00

Peak level 93.7 %
Extraction speed 2.9 X
Track quality 100.0 %
Test CRC 68F2FD32
Copy CRC 68F2FD32
Accurately ripped (confidence 4) [C87DCD10] (AR v2)
Copy OK

Track 7

Filename C:\Documents and Settings\Administrator\Documenti\UPLOAD\Pere Ubu - Datapanik In The Year Zero BOX CD4 (2009) [FLAC]\07 - David Thomas - Atom Mind.wav

Pre-gap length 0:00:02.00

Peak level 99.9 %
Extraction speed 3.1 X
Track quality 100.0 %
Test CRC 3388E60C
Copy CRC 3388E60C
Accurately ripped (confidence 4) [5D7FA144] (AR v2)
Copy OK

Track 8

Filename C:\Documents and Settings\Administrator\Documenti\UPLOAD\Pere Ubu - Datapanik In The Year Zero BOX CD4 (2009) [FLAC]\08 - Tripod Jimmy - Autumn Leaves.wav

Pre-gap length 0:00:02.00

Peak level 96.9 %
Extraction speed 3.4 X
Track quality 100.0 %
Test CRC 4AF883F3
Copy CRC 4AF883F3
Accurately ripped (confidence 4) [48D32707] (AR v2)
Copy OK

Track 9

Filename C:\Documents and Settings\Administrator\Documenti\UPLOAD\Pere Ubu - Datapanik In The Year Zero BOX CD4 (2009) [FLAC]\09 - Friction - Dear Richard.wav

Pre-gap length 0:00:02.00

Peak level 91.8 %
Extraction speed 3.8 X
Track quality 100.0 %
Test CRC 62192EFA
Copy CRC 62192EFA
Accurately ripped (confidence 4) [F72C58B8] (AR v2)
Copy OK

Track 10

Filename C:\Documents and Settings\Administrator\Documenti\UPLOAD\Pere Ubu - Datapanik In The Year Zero BOX CD4 (2009) [FLAC]\10 - Pressler-Morgan - You're Gonna Watch Me.wav

Pre-gap length 0:00:02.00

Peak level 93.1 %
Extraction speed 3.1 X
Track quality 100.0 %
Test CRC D509BA3F
Copy CRC D509BA3F
Accurately ripped (confidence 4) [99A4BC71] (AR v2)
Copy OK

Track 11

Filename C:\Documents and Settings\Administrator\Documenti\UPLOAD\Pere Ubu - Datapanik In The Year Zero BOX CD4 (2009) [FLAC]\11 - Rocket From The Tombs - Amphetamine.wav

Pre-gap length 0:00:02.00

Peak level 100.0 %
Extraction speed 4.0 X
Track quality 100.0 %
Test CRC BD91E387
Copy CRC BD91E387
Accurately ripped (confidence 4) [67D4D81B] (AR v2)
Copy OK

Track 12

Filename C:\Documents and Settings\Administrator\Documenti\UPLOAD\Pere Ubu - Datapanik In The Year Zero BOX CD4 (2009) [FLAC]\12 - Mirrors - She Smiled Wild.wav

Pre-gap length 0:00:02.00

Peak level 91.6 %
Extraction speed 3.6 X
Track quality 99.9 %
Test CRC A1BA3F61
Copy CRC A1BA3F61
Accurately ripped (confidence 4) [4D2DDB43] (AR v2)
Copy OK

Track 13

Filename C:\Documents and Settings\Administrator\Documenti\UPLOAD\Pere Ubu - Datapanik In The Year Zero BOX CD4 (2009) [FLAC]\13 - Electric Eels - Jaguar Ride.wav

Pre-gap length 0:00:02.00

Peak level 92.8 %
Extraction speed 2.8 X
Track quality 99.9 %
Test CRC 1828208C
Copy CRC 1828208C
Accurately ripped (confidence 4) [5F6CC16D] (AR v2)
Copy OK

Track 14

Filename C:\Documents and Settings\Administrator\Documenti\UPLOAD\Pere Ubu - Datapanik In The Year Zero BOX CD4 (2009) [FLAC]\14 - Tom Herman - Steve Canyon Blues.wav

Pre-gap length 0:00:02.00

Peak level 100.0 %
Extraction speed 4.3 X
Track quality 100.0 %
Test CRC 3209D163
Copy CRC 3209D163
Accurately ripped (confidence 4) [C173E8C2] (AR v2)
Copy OK

Track 15

Filename C:\Documents and Settings\Administrator\Documenti\UPLOAD\Pere Ubu - Datapanik In The Year Zero BOX CD4 (2009) [FLAC]\15 - Allen Ravenstine - Home Life.wav

Pre-gap length 0:00:02.00

Peak level 74.2 %
Extraction speed 4.3 X
Track quality 99.9 %
Test CRC 64A50E97
Copy CRC 64A50E97
Accurately ripped (confidence 4) [5FF05450] (AR v2)
Copy OK

Track 16

Filename C:\Documents and Settings\Administrator\Documenti\UPLOAD\Pere Ubu - Datapanik In The Year Zero BOX CD4 (2009) [FLAC]\16 - Rocket From The Tombs - 30 Seconds Over Tokyo.wav

Pre-gap length 0:00:02.00

Peak level 100.0 %
Extraction speed 4.9 X
Track quality 100.0 %
Test CRC E04B582A
Copy CRC E04B582A
Accurately ripped (confidence 4) [CEDB4CC2] (AR v2)
Copy OK

Track 17

Filename C:\Documents and Settings\Administrator\Documenti\UPLOAD\Pere Ubu - Datapanik In The Year Zero BOX CD4 (2009) [FLAC]\17 - Pere Ubu - Heart Of Darkness.wav

Pre-gap length 0:00:02.00

Peak level 100.0 %
Extraction speed 5.2 X
Track quality 100.0 %
Test CRC 05D80F14
Copy CRC 05D80F14
Accurately ripped (confidence 4) [BB1344C3] (AR v2)
Copy OK

Track 18

Filename C:\Documents and Settings\Administrator\Documenti\UPLOAD\Pere Ubu - Datapanik In The Year Zero BOX CD4 (2009) [FLAC]\18 - Pere Ubu - Pushin Too Hard.wav

Pre-gap length 0:00:02.00

Peak level 100.0 %
Extraction speed 5.0 X
Track quality 100.0 %
Test CRC B6E03477
Copy CRC B6E03477
Accurately ripped (confidence 4) [7349EAAE] (AR v2)
Copy OK


All tracks accurately ripped

No errors occurred

End of status report

==== Log checksum 2E0A2B1084FE24C1627B09A48546E834D963B093306FD746F21D52A14F6C7E93 ====


Pere Ubu - Datapanik In The Year Zero (2009) {4CD Box Set Cooking Vinyl COOK CD 098 rec 1975-1982}



===