Subcategories

Pet Shop Boys - Dreamland (Single) (2019)

Posted By: delpotro
Pet Shop Boys - Dreamland (Single) (2019)

Pet Shop Boys - Dreamland (Single) (2019)
EAC Rip | FLAC (tracks+log+.cue) - 140 Mb | MP3 CBR 320 kbps - 48 Mb | 00:20:48
Synthpop | Label: x2 Recordings

‘Dreamland’ is the first single from their forthcoming – as yet unnamed – album and features Years & Years. The five-track CD single features two remixes and new other songs. ‘An Open Mind’ is a non-album track from the sessions, while ‘No Boundaries’ taken from the stage version of Hanif Kureishi’s My Beautiful Laundrette, which opened in Leicester September 2019.
Tracklist:
1. Dreamland (feat. Years & Years) (03:28)
2. An Open Mind (03:52)
3. No Boundaries (03:40)
4. Dreamland (feat. Years & Years) [PSB Remix] (04:41)
5. Dreamland (feat. Years & Years) [TWD Vocal Remix] (05:06)

Exact Audio Copy V1.3 from 2. September 2016

EAC extraction logfile from 27. October 2019, 16:18

Pet Shop Boys / Dreamland

Used drive : ATAPI DVD A DH16AASH Adapter: 1 ID: 0

Read mode : Secure
Utilize accurate stream : Yes
Defeat audio cache : Yes
Make use of C2 pointers : No

Read offset correction : 6
Overread into Lead-In and Lead-Out : No
Fill up missing offset samples with silence : Yes
Delete leading and trailing silent blocks : No
Null samples used in CRC calculations : Yes
Used interface : Native Win32 interface for Win NT & 2000
Gap handling : Appended to previous track

Used output format : User Defined Encoder
Selected bitrate : 1024 kBit/s
Quality : High
Add ID3 tag : No
Command line compressor : C:\Program Files (x86)\Exact Audio Copy\Flac\flac.exe
Additional command line options : -8 -V -T "ARTIST=%artist%" -T "TITLE=%title%" -T "ALBUM=%albumtitle%" -T "DATE=%year%" -T "TRACKNUMBER=%tracknr%" -T "GENRE=%genre%" -T "PERFORMER=%albuminterpret%" -T "COMPOSER=%composer%" %haslyrics%–tag-from-file=LYRICS="%lyricsfile%"%haslyrics% -T "ALBUMARTIST=%albumartist%" -T "DISCNUMBER=%cdnumber%" -T "TOTALDISCS=%totalcds%" -T "TOTALTRACKS=%numtracks%" -T "COMMENT=%comment%" %source% -o %dest%


TOC of the extracted CD

Track | Start | Length | Start sector | End sector
––––––––––––––––––––––––––––-
1 | 0:00.00 | 3:30.32 | 0 | 15781
2 | 3:30.32 | 3:52.01 | 15782 | 33182
3 | 7:22.33 | 3:37.63 | 33183 | 49520
4 | 11:00.21 | 4:41.61 | 49521 | 70656
5 | 15:42.07 | 5:06.32 | 70657 | 93638


Track 1

Filename E:\EAC\Pet Shop Boys - 2019 - Dreamland [CDS-FLAC]\01 - Dreamland.wav

Pre-gap length 0:00:02.00

Peak level 99.9 %
Extraction speed 3.3 X
Track quality 100.0 %
Test CRC EEF75573
Copy CRC EEF75573
Track not present in AccurateRip database
Copy OK

Track 2

Filename E:\EAC\Pet Shop Boys - 2019 - Dreamland [CDS-FLAC]\02 - An Open Mind.wav

Peak level 98.8 %
Extraction speed 3.7 X
Track quality 100.0 %
Test CRC CA62B3E7
Copy CRC CA62B3E7
Track not present in AccurateRip database
Copy OK

Track 3

Filename E:\EAC\Pet Shop Boys - 2019 - Dreamland [CDS-FLAC]\03 - No Boundaries.wav

Peak level 98.8 %
Extraction speed 4.0 X
Track quality 100.0 %
Test CRC D0C77220
Copy CRC D0C77220
Track not present in AccurateRip database
Copy OK

Track 4

Filename E:\EAC\Pet Shop Boys - 2019 - Dreamland [CDS-FLAC]\04 - Dreamland (PSB Remix).wav

Peak level 96.2 %
Extraction speed 4.5 X
Track quality 100.0 %
Test CRC D10D3F81
Copy CRC D10D3F81
Track not present in AccurateRip database
Copy OK

Track 5

Filename E:\EAC\Pet Shop Boys - 2019 - Dreamland [CDS-FLAC]\05 - Dreamland (TWD Vocal Remix).wav

Peak level 97.8 %
Extraction speed 4.1 X
Track quality 99.9 %
Test CRC 9C5F19F3
Copy CRC 9C5F19F3
Track not present in AccurateRip database
Copy OK


None of the tracks are present in the AccurateRip database

No errors occurred

End of status report

–– CUETools DB Plugin V2.1.6

[CTDB TOCID: dkE5OH8B_MHieINMABophrVdu4A-] found
Submit result: dkE5OH8B_MHieINMABophrVdu4A- has been confirmed
Track | CTDB Status
1 | (2/2) Accurately ripped
2 | (2/2) Accurately ripped
3 | (2/2) Accurately ripped
4 | (2/2) Accurately ripped
5 | (2/2) Accurately ripped


==== Log checksum EF85B3F6CC81CCD9816515EC7B58FEE9494B1D35FCEA2EA557C39F449120D8DA ====

Thanks to the Original ripper !