Subcategories

Pete Magadini - Bones Blues (1977) {Sackville CD 2-4004 rel 1996}

Posted By: ruskaval
Pete Magadini - Bones Blues (1977) {Sackville CD 2-4004 rel 1996}

Pete Magadini - Bones Blues (1977) {Sackville CD 2-4004 rel 1996}
EAC rip (secure mode) | FLAC (tracks)+CUE+LOG -> 317 Mb | MP3 @320 -> 118 Mb
Full Artwork @ 300 dpi (jpg) -> 8 Mb | 5% repair rar
© 1977, 1996 Sackville Recordings | CD 2-4004
Jazz / Mainstream Jazz / Bop / Hard Bop

Although drummer Pete Magadini is the leader of this set (which was reissued on CD in 1996 with a previously unreleased second version of "Freddie Freeloader" added), it is tenor saxophonist Don Menza who really dominates the music. Menza (along with Magadini, pianist Wray Downes and bassist Dave Young) stretches out on such numbers as "Old Devil Moon," "Solar" and his own "Bones Blues," tearing into the music but also showing senstivity on the ballads. Don Menza should really be recorded much more often.

AAJ INFO

Musicians
Drums Pete Magadini
Piano Wray Downs
Saxophone Don Menza
Bass Dave Young

Tracklisting
01 Old Devil Moon 06:08
02 Freddie Freeloader 06:09
03 Poor Butterfly 06:25
04 Solar 05:59
05 I Remember Clifford 05:26
06 What A Time We Had 05:21
07 Bones Blues 07:21
08 Freddie Freeloader No. 2 07:11

Exact Audio Copy V1.1 from 23. June 2015

EAC extraction logfile from 5. December 2017, 8:41

Pete Magadini / Bones Blues

Used drive : MATSHITADVD+-RW SW830 Adapter: 1 ID: 0

Read mode : Secure
Utilize accurate stream : Yes
Defeat audio cache : Yes
Make use of C2 pointers : No

Read offset correction : 6
Overread into Lead-In and Lead-Out : No
Fill up missing offset samples with silence : Yes
Delete leading and trailing silent blocks : No
Null samples used in CRC calculations : Yes
Used interface : Native Win32 interface for Win NT & 2000
Gap handling : Appended to previous track

Used output format : User Defined Encoder
Selected bitrate : 896 kBit/s
Quality : High
Add ID3 tag : No
Command line compressor : C:\Program Files (x86)\Exact Audio Copy\Flac\flac.exe
Additional command line options : -8 -V -T "ARTIST=%artist%" -T "TITLE=%title%" -T "ALBUM=%albumtitle%" -T "DATE=%year%" -T "TRACKNUMBER=%tracknr%" -T "TOTALTRACKS=%numtracks%" -T "GENRE=%genre%" -T "ALBUMARTIST=%albumartist%" -T "ALBUM ARTIST=%albumartist%" -T "COMMENT=EAC Secure Mode, Test & Copy, AccurateRip, FLAC -8" %source%


TOC of the extracted CD

Track | Start | Length | Start sector | End sector
––––––––––––––––––––––––––––-
1 | 0:00.32 | 6:09.73 | 32 | 27779
2 | 6:10.30 | 6:11.62 | 27780 | 55666
3 | 12:22.17 | 6:28.68 | 55667 | 84834
4 | 18:51.10 | 6:01.10 | 84835 | 111919
5 | 24:52.20 | 5:28.02 | 111920 | 136521
6 | 30:20.22 | 5:24.33 | 136522 | 160854
7 | 35:44.55 | 7:24.27 | 160855 | 194181
8 | 43:09.07 | 7:09.58 | 194182 | 226414


Track 1

Filename G:\New Rips\Pete Magadini - Bones Blues (1977) [FLAC]\01 - Old Devil Moon.wav

Pre-gap length 0:00:02.32

Peak level 89.1 %
Extraction speed 5.1 X
Track quality 100.0 %
Test CRC 561CBE9E
Copy CRC 561CBE9E
Cannot be verified as accurate (confidence 2) [47571668], AccurateRip returned [B303D0FB] (AR v2)
Copy OK

Track 2

Filename G:\New Rips\Pete Magadini - Bones Blues (1977) [FLAC]\02 - Freddie Freeloader.wav

Pre-gap length 0:00:03.35

Peak level 89.1 %
Extraction speed 5.1 X
Track quality 99.9 %
Test CRC D7608237
Copy CRC D7608237
Cannot be verified as accurate (confidence 2) [D8224C73], AccurateRip returned [F9804CA5] (AR v2)
Copy OK

Track 3

Filename G:\New Rips\Pete Magadini - Bones Blues (1977) [FLAC]\03 - Poor Butterfly.wav

Pre-gap length 0:00:02.67

Peak level 89.1 %
Extraction speed 6.5 X
Track quality 100.0 %
Test CRC FB24F840
Copy CRC FB24F840
Cannot be verified as accurate (confidence 2) [AC01E3E1], AccurateRip returned [2DA63085] (AR v2)
Copy OK

Track 4

Filename G:\New Rips\Pete Magadini - Bones Blues (1977) [FLAC]\04 - Solar.wav

Pre-gap length 0:00:02.43

Peak level 89.1 %
Extraction speed 7.0 X
Track quality 100.0 %
Test CRC 2A22D127
Copy CRC 2A22D127
Cannot be verified as accurate (confidence 2) [58877BBE], AccurateRip returned [63A4CCF1] (AR v2)
Copy OK

Track 5

Filename G:\New Rips\Pete Magadini - Bones Blues (1977) [FLAC]\05 - I Remember Clifford.wav

Pre-gap length 0:00:01.65

Peak level 87.7 %
Extraction speed 6.3 X
Track quality 99.9 %
Test CRC 695BFAA5
Copy CRC 695BFAA5
Cannot be verified as accurate (confidence 2) [E7D4A695], AccurateRip returned [5BA1739F] (AR v2)
Copy OK

Track 6

Filename G:\New Rips\Pete Magadini - Bones Blues (1977) [FLAC]\06 - What A Time We Had.wav

Pre-gap length 0:00:01.22

Peak level 91.1 %
Extraction speed 7.8 X
Track quality 100.0 %
Test CRC D3B2A786
Copy CRC D3B2A786
Cannot be verified as accurate (confidence 1) [4CBD1502], AccurateRip returned [30074136] (AR v2)
Copy OK

Track 7

Filename G:\New Rips\Pete Magadini - Bones Blues (1977) [FLAC]\07 - Bones Blues.wav

Pre-gap length 0:00:03.65

Peak level 93.3 %
Extraction speed 8.5 X
Track quality 100.0 %
Test CRC 324114D5
Copy CRC 324114D5
Cannot be verified as accurate (confidence 1) [5E99EA54], AccurateRip returned [61F5ADBC] (AR v2)
Copy OK

Track 8

Filename G:\New Rips\Pete Magadini - Bones Blues (1977) [FLAC]\08 - Freddie Freeloader No 2.wav

Pre-gap length 0:00:02.40

Peak level 93.3 %
Extraction speed 8.9 X
Track quality 100.0 %
Test CRC EDD22481
Copy CRC EDD22481
Cannot be verified as accurate (confidence 1) [2A081589], AccurateRip returned [E6028A2D] (AR v2)
Copy OK


No tracks could be verified as accurate
You may have a different pressing from the one(s) in the database

No errors occurred

End of status report

–– CUETools DB Plugin V2.1.6

[CTDB TOCID: vcvE8W4bk6BgtwWJa1bQp3gMZTo-] found
Submit result: vcvE8W4bk6BgtwWJa1bQp3gMZTo- has been confirmed
Track | CTDB Status
1 | (1/1) Accurately ripped
2 | (1/1) Accurately ripped
3 | (1/1) Accurately ripped
4 | (1/1) Accurately ripped
5 | (1/1) Accurately ripped
6 | (1/1) Accurately ripped
7 | (1/1) Accurately ripped
8 | (1/1) Accurately ripped


==== Log checksum FE8B865486B7B0C92A8D20F2CD0B2F6B6CE6C6E6F9718C02FE89FB164AD1D549 ====


Pete Magadini - Bones Blues (1977) {Sackville CD 2-4004 rel 1996}

Pete Magadini - Bones Blues (1977) {Sackville CD 2-4004 rel 1996}



===