Subcategories

Peter White - Groovin' (2016)

Posted By: mark70
Peter White - Groovin' (2016)

Peter White - Groovin' (2016)
EAC Rip | FLAC (image) + Cue + Log | Scans | 47:54 min | 355 MB
Genre: Smooth Jazz | Label: Heads Up

Over the years, British-born, LA-based Peter White has maintained a reputation as one of the most versatile and prolific acoustic guitarists on the contemporary jazz landscape. For his fifteenth recording as a leader, Groovin', he returns to some of his favorite tracks from the '60s and '70s, giving each of them his own interpretation. White's October 28, 2016 release features The Young Rascals Groovin', Stevie Wonder's Do I Do, Otis Redding's (Sittin On) The Dock of the Bay, John Lennon and Paul McCartney's Here, There and Everywhere and much more, augmented by an impressive array of special guests, including Vincent Ingala, Rick Braun, Charlotte White, Ricky Lawson, Ramon Yslas, David Dyson, Selina Albright and Stevo Theard. The former Al Stewart sideman (White co-wrote the 1978 hit Time Passages) says, "My hope is that in re-recording these songs, I have managed to capture the emotion inherent in each one and give you, the listener a new way of enjoying them."

Peter White - Groovin' (2016)


Tracklist:

01. Groovin’
02. Do I Do
03. (Sittin’ On) The Dock of the Bay
04. How Long
05. I Can See Clearly Now
06. I Heard It Through the Grapevine
07. Never Knew Love Like This Before
08. Sleepwalk
09. When Will I See You Again
10. Here, There and Everywhere

Exact Audio Copy V1.1 from 23. June 2015

Отчёт EAC об извлечении, выполненном 30. ноября 2016, 18:01

Peter White / Groovin'

Дисковод: ASUS DRW-22B3S Adapter: 1 ID: 2

Режим чтения : Достоверность
Использование точного потока : Да
Отключение кэша аудио : Да
Использование указателей C2 : Нет

Коррекция смещения при чтении : 6
Способность читать области Lead-in и Lead-out : Нет
Заполнение пропущенных сэмплов тишиной : Да
Удаление блоков с тишиной в начале и конце : Нет
При вычислениях CRC использовались нулевые сэмплы : Да
Интерфейс : Встроенный Win32-интерфейс для Win NT/2000

Выходной формат : Пользовательский кодировщик
Выбранный битрейт : 768 kBit/s
Качество : Высокий
Добавление ID3-тега : Нет
Утилита сжатия : C:\Program Files\Exact Audio Copy\FLAC\FLAC.EXE
Дополнительные параметры : -6 -V -T "ARTIST=%artist%" -T "TITLE=%title%" -T "ALBUM=%albumtitle%" -T "DATE=%year%" -T "TRACKNUMBER=%tracknr%" -T "GENRE=%genre%" -T "COMMENT=%comment%" -T "BAND=%albuminterpret%" -T "ALBUMARTIST=%albuminterpret%" -T "COMPOSER=%composer%" %haslyrics%–tag-from-file=LYRICS="%lyricsfile%"%haslyrics% -T "DISCNUMBER=%cdnumber%" -T "TOTALDISCS=%totalcds%" -T "TOTALTRACKS=%numtracks%" %hascover%–picture="%coverfile%"%hascover% %source% -o %dest%


TOC извлечённого CD

Трек | Старт | Длительность | Начальный сектор | Конечный сектор
––––––––––––––––––––––––––––––––––-
1 | 0:00.00 | 4:31.55 | 0 | 20379
2 | 4:31.55 | 4:55.45 | 20380 | 42549
3 | 9:27.25 | 4:38.46 | 42550 | 63445
4 | 14:05.71 | 5:42.69 | 63446 | 89164
5 | 19:48.65 | 4:39.51 | 89165 | 110140
6 | 24:28.41 | 5:04.46 | 110141 | 132986
7 | 29:33.12 | 6:31.63 | 132987 | 162374
8 | 36:05.00 | 4:18.04 | 162375 | 181728
9 | 40:23.04 | 4:44.49 | 181729 | 203077
10 | 45:07.53 | 2:47.04 | 203078 | 215606


Характеристики диапазона извлечения и сообщения об ошибках

Выбранный диапазон

Имя файла C:\Users\TITANIUM\Desktop\Peter White - Groovin' - 2016 47'57''\Peter White - Groovin'.wav

Пиковый уровень 100.0 %
Скорость извлечения 3.1 X
Качество диапазона 100.0 %
CRC теста 87EE4A03
CRC копии 87EE4A03
Копирование… OK

Ошибок не произошло

Конец отчёта

–– CUETools DB Plugin V2.1.6

[CTDB TOCID: KNqGUioD_oTtDLWWJEtnuacXTKE-] found
Submit result: KNqGUioD_oTtDLWWJEtnuacXTKE- has been confirmed
Track | CTDB Status
1 | (11/11) Accurately ripped
2 | (11/11) Accurately ripped
3 | (11/11) Accurately ripped
4 | (11/11) Accurately ripped
5 | (11/11) Accurately ripped
6 | (10/11) Accurately ripped
7 | (10/11) Accurately ripped
8 | (11/11) Accurately ripped
9 | (10/11) Accurately ripped
10 | (11/11) Accurately ripped


==== Контрольная сумма отчёта EE0BF99F12288FAA8474F19B0BD99732BD5343DD1D1060129BA6649E983A006F ====


Peter White - Groovin' (2016)


All thanks goes to the original releaser!