Subcategories

Pharoah Sanders - Africa (1987) {2015 Japan Timeless Jazz Master Collection Complete Series}

Posted By: ruskaval
Pharoah Sanders - Africa (1987) {2015 Japan Timeless Jazz Master Collection Complete Series}

Pharoah Sanders - Africa (1987) {2015 Japan Timeless Jazz Master Collection Complete Series}
EAC rip (secure mode) | FLAC (tracks)+CUE+LOG -> 384 Mb | MP3 @320 -> 137 Mb
Full Artwork @ 600 dpi (png) -> 199 Mb | 5% repair rar
© 2015 Timeless Records / Solid Records Japan / Ultra-Vibe | CDSOL-6311
Jazz / Modal Music / Post Bop / Progressive Jazz / Saxophone

Reissue with the latest remastering. Features original cover artwork. Comes with a descripton in Japanese. A brilliant 80s set from Pharoah Sanders – a record that has him a much more understated setting than some of his other albums from the time – but one that's maybe even more soulful and searching overall! The great one plays blistering tenor right from the start – in a quartet with John Hicks on piano, Curtis Lundy on bass, and Idris Muhammad on drums – all players who have this way of doing a lot with a little, especially in the rhythm department – where they seem to give Sanders some of his strongest sense of groove since the key albums for Theresa. Muhammad's got this tight sense of timekeeping, but with a looseness that we love – and Lundy's warm soulful bass does more than enough to give the set a sound bottom – and Hicks' free lyrical piano works nicely with Sanders' spiritual horn. Titles include a remake of "You've Got To Have Freedom", plus "Africa", "Duo", "Heart To Heart", and "After The Morning".
Pharoah Sanders - Africa (1987) {2015 Japan Timeless Jazz Master Collection Complete Series}


Ultra-Vibe INFO

Personnel:
Pharoah Sanders - tenor saxophone
John Hicks - piano
Curtis Lundy - bass
Idris Muhammad - drums

tracklist:
01 - You've Got To Have Freedom
02 - Naima
03 - Origin
04 - Speak Low
05 - After The Morning
06 - Africa
07 - Heart To Heart
08 - Duo

Exact Audio Copy V1.1 from 23. June 2015

EAC extraction logfile from 20. October 2015, 8:53

Pharoah Sanders / Africa

Used drive : TSSTcorpCDDVDW SE-208DB Adapter: 7 ID: 0

Read mode : Secure
Utilize accurate stream : Yes
Defeat audio cache : Yes
Make use of C2 pointers : No

Read offset correction : 6
Overread into Lead-In and Lead-Out : No
Fill up missing offset samples with silence : Yes
Delete leading and trailing silent blocks : No
Null samples used in CRC calculations : Yes
Used interface : Installed external ASPI interface
Gap handling : Appended to previous track

Used output format : User Defined Encoder
Selected bitrate : 1024 kBit/s
Quality : High
Add ID3 tag : No
Command line compressor : C:\Program Files (x86)\FLAC Frontend\tools\flac.exe
Additional command line options : -8 -V -T "ARTIST=%artist%" -T "TITLE=%title%" -T "ALBUM=%albumtitle%" -T "DATE=%year%" -T "TRACKNUMBER=%tracknr%" -T "TOTALTRACKS=%numtracks%" -T "GENRE=%genre%" -T "ALBUMARTIST=%albumartist%" -T "ALBUM ARTIST=%albumartist%" -T "COMMENT=EAC Secure Mode, Test & Copy, AccurateRip, FLAC -8" %source%


TOC of the extracted CD

Track | Start | Length | Start sector | End sector
––––––––––––––––––––––––––––-
1 | 0:00.00 | 10:06.17 | 0 | 45466
2 | 10:06.17 | 5:31.12 | 45467 | 70303
3 | 15:37.29 | 6:54.65 | 70304 | 101418
4 | 22:32.19 | 8:08.09 | 101419 | 138027
5 | 30:40.28 | 6:34.39 | 138028 | 167616
6 | 37:14.67 | 8:24.74 | 167617 | 205490
7 | 45:39.66 | 7:22.26 | 205491 | 238666
8 | 53:02.17 | 4:34.24 | 238667 | 259240


Track 1

Filename M:\_EAC\Pharoah Sanders - Africa (1987) [FLAC] {2015 Japan Timeless Jazz Master Collection}\01 - You've Got To Have Freedom.wav

Pre-gap length 0:00:02.00

Peak level 96.6 %
Extraction speed 2.8 X
Track quality 99.9 %
Test CRC 99155EE9
Copy CRC 99155EE9
Accurately ripped (confidence 1) [FDC1A8A4] (AR v2)
Copy OK

Track 2

Filename M:\_EAC\Pharoah Sanders - Africa (1987) [FLAC] {2015 Japan Timeless Jazz Master Collection}\02 - Naima.wav

Peak level 96.6 %
Extraction speed 3.5 X
Track quality 100.0 %
Test CRC 4DDA85E8
Copy CRC 4DDA85E8
Accurately ripped (confidence 1) [31C602D7] (AR v2)
Copy OK

Track 3

Filename M:\_EAC\Pharoah Sanders - Africa (1987) [FLAC] {2015 Japan Timeless Jazz Master Collection}\03 - Origin.wav

Peak level 96.6 %
Extraction speed 3.9 X
Track quality 100.0 %
Test CRC 2074C0C9
Copy CRC 2074C0C9
Accurately ripped (confidence 1) [427645E3] (AR v2)
Copy OK

Track 4

Filename M:\_EAC\Pharoah Sanders - Africa (1987) [FLAC] {2015 Japan Timeless Jazz Master Collection}\04 - Speak Low.wav

Peak level 96.6 %
Extraction speed 4.4 X
Track quality 100.0 %
Test CRC B1816F26
Copy CRC B1816F26
Accurately ripped (confidence 1) [C3DD4F29] (AR v2)
Copy OK

Track 5

Filename M:\_EAC\Pharoah Sanders - Africa (1987) [FLAC] {2015 Japan Timeless Jazz Master Collection}\05 - After The Morning.wav

Peak level 96.6 %
Extraction speed 4.6 X
Track quality 100.0 %
Test CRC C30D1298
Copy CRC C30D1298
Accurately ripped (confidence 1) [17D40DDB] (AR v2)
Copy OK

Track 6

Filename M:\_EAC\Pharoah Sanders - Africa (1987) [FLAC] {2015 Japan Timeless Jazz Master Collection}\06 - Africa.wav

Peak level 96.6 %
Extraction speed 4.5 X
Track quality 99.9 %
Test CRC F306FF69
Copy CRC F306FF69
Accurately ripped (confidence 1) [40285739] (AR v2)
Copy OK

Track 7

Filename M:\_EAC\Pharoah Sanders - Africa (1987) [FLAC] {2015 Japan Timeless Jazz Master Collection}\07 - Heart To Heart.wav

Peak level 96.6 %
Extraction speed 5.3 X
Track quality 100.0 %
Test CRC FC105505
Copy CRC FC105505
Accurately ripped (confidence 1) [101D655B] (AR v2)
Copy OK

Track 8

Filename M:\_EAC\Pharoah Sanders - Africa (1987) [FLAC] {2015 Japan Timeless Jazz Master Collection}\08 - Duo.wav

Peak level 96.6 %
Extraction speed 5.3 X
Track quality 100.0 %
Test CRC 319BA99F
Copy CRC 319BA99F
Accurately ripped (confidence 1) [C14A52B1] (AR v2)
Copy OK


All tracks accurately ripped

No errors occurred

End of status report

==== Log checksum 4664FA8612EEBDA017CA57D195AF7C6D8A7785D26C933499C84920064F25C60B ====


Pharoah Sanders - Africa (1987) {2015 Japan Timeless Jazz Master Collection Complete Series}

Pharoah Sanders - Africa (1987) {2015 Japan Timeless Jazz Master Collection Complete Series}




NEXT -> More 2015 Japan Timeless Jazz Master Collection…