Subcategories

Phil Woods - Floresta Canto (1975) {2015 Japan Jazz Collection 1000 Columbia-RCA Series SICJ 95}

Posted By: ruskaval
Phil Woods - Floresta Canto (1975) {2015 Japan Jazz Collection 1000 Columbia-RCA Series SICJ 95}

Phil Woods - Floresta Canto (1975) {2015 Japan Jazz Collection 1000 Columbia-RCA Series SICJ 95}
EAC rip (secure mode) | FLAC (tracks)+CUE+LOG -> 339 Mb | MP3 @320 -> 109 Mb
Full Artwork @ 600 dpi (png) -> 249 Mb | 5% repair rar
© 1975, 2015 RCA / Sony Music Japan | SICJ 95
Jazz / Fusion / Hard Bop / Modern Big Band / Latin Jazz / Saxophone

Reissue with the latest remastering. Comes with liner notes. One of those great records from the 70s that makes you say "man, Phil Woods was hip!" The session was cut in London with an electrified big band led by Chris Gunning, and featuring keyboards by the groovy Gordon Beck – kind of a blend of strings, keys, and woodwinds – providing some lush backdrops that allow Phil to really open up on some great solos. The style is similar to Phil's album Images, done with Michel Legrand – but with some more electric touches – and like that album, it's got a wonderfully fluid, lyrical approach that's quite different from the harder-jamming fusion albums Woods cut in Europe. Titles include "Canto De Ossanha", "Sails", "Roses", "Without You", "Jesse", and "O Morro".
At first glance, this LP by Phil Woods might appear to be a rather easily dismissed commercial affair, but just eyeballing a record jacket can be deceiving. Woods' conception of a large orchestra performing bossa novas was realized through his collaboration with Chris Gunning and his orchestra during a trip to England in 1976; what is surprising is that this recording, sometimes with strings and backing vocals, was done completely without any overdubs. Gunning and Woods both contributed arrangements and orchestrations. Another treat is hearing Woods on soprano sax, an instrument he has used sporadically on recordings, on both the opening track, "Canto de Ossanha (Let Go)," and Gunning's "Chaldean Prayer." Woods is also in top form on his main instrument, alto sax, which he plays on most of the rest of the tracks. Keyboardist Gordon Beck (who had previously worked with Phil Woods & His European Rhythm Machine), trumpeter Kenny Wheeler, and saxophonist Tony Coe are among the most notable names in the musicians present. Although both the strings and the backing vocals grow tiresome over time, the effort put into the production of this LP is still rather impressive. Not a likely candidate for reissue, but this long out of print record should still be relatively easy to find.
Phil Woods - Floresta Canto (1975) {2015 Japan Jazz Collection 1000 Columbia-RCA Series SICJ 95}


Personnel:
Phil Woods - Arranger, Clarinet, Composer, Orchestration, Sax (Alto), Sax (Soprano)
Chris Gunning - Arranger, Conductor, Orchestration

Gordon Beck - Keyboards
Alf Bigden - Drums
Tony Carr - Marimba, Timbales
Tony Coe - Sax (Tenor), Saxophone
Bob Efford - Sax (Baritone), Saxophone
Tony Fisher - Trumpet
Louis Jardim - Percussion
Robin Jones - Percussion
Chris Karan - Chimes, Clavichord, Drums
Dave Markee - Bass, Bass (Electric)
Nat Peck - Trombone
Chris Pyne - Trombone
Jack Rothstein - Concert Master, Violin
Darryl Runswick - Bass, Bass (Electric)
Stan Sulzmann - Saxophone
Tony Uter - Congas, Percussion
Kenny Wheeler - Trumpet
Roy Wilox - Flute

tracklist:
01 - Canto De Ossanha (Let Go)
02 - Let Me
03 - O Morro
04 - Chaldean Prayer
05 - Sails
06 - Roses
07 - Without You
08 - Portrait Of Julia
09 - Jesse
10 - Menino Das Laranjas

Exact Audio Copy V1.1 from 23. June 2015

EAC extraction logfile from 3. June 2016, 14:27

Phil Woods / Floresta Canto

Used drive : HL-DT-STDVDRAM GP50NW41 Adapter: 1 ID: 0

Read mode : Secure
Utilize accurate stream : Yes
Defeat audio cache : Yes
Make use of C2 pointers : No

Read offset correction : 6
Overread into Lead-In and Lead-Out : No
Fill up missing offset samples with silence : Yes
Delete leading and trailing silent blocks : No
Null samples used in CRC calculations : Yes
Used interface : Native Win32 interface for Win NT & 2000
Gap handling : Appended to previous track

Used output format : User Defined Encoder
Selected bitrate : 1024 kBit/s
Quality : High
Add ID3 tag : No
Command line compressor : C:\Program Files (x86)\FLAC Frontend\tools\flac.exe
Additional command line options : -8 -V -T "ARTIST=%artist%" -T "TITLE=%title%" -T "ALBUM=%albumtitle%" -T "DATE=%year%" -T "TRACKNUMBER=%tracknr%" -T "TOTALTRACKS=%numtracks%" -T "GENRE=%genre%" -T "ALBUMARTIST=%albumartist%" -T "ALBUM ARTIST=%albumartist%" -T "COMMENT=EAC Secure Mode, Test & Copy, AccurateRip, FLAC -8" %source%


TOC of the extracted CD

Track | Start | Length | Start sector | End sector
––––––––––––––––––––––––––––-
1 | 0:00.00 | 4:57.55 | 0 | 22329
2 | 4:57.55 | 4:01.50 | 22330 | 40454
3 | 8:59.30 | 4:23.60 | 40455 | 60239
4 | 13:23.15 | 8:57.40 | 60240 | 100554
5 | 22:20.55 | 3:57.10 | 100555 | 118339
6 | 26:17.65 | 4:25.47 | 118340 | 138261
7 | 30:43.37 | 4:17.08 | 138262 | 157544
8 | 35:00.45 | 5:08.62 | 157545 | 180706
9 | 40:09.32 | 4:16.20 | 180707 | 199926
10 | 44:25.52 | 2:43.73 | 199927 | 212224


Track 1

Filename D:\_EAC\Phil Woods - Floresta Canto (1975) [FLAC] {SICJ 95}\01 - Canto De Ossanha (Let Go).wav

Pre-gap length 0:00:02.00

Peak level 98.8 %
Extraction speed 2.8 X
Track quality 100.0 %
Test CRC 2D3A52F3
Copy CRC 2D3A52F3
Accurately ripped (confidence 1) [90B0176E] (AR v2)
Copy OK

Track 2

Filename D:\_EAC\Phil Woods - Floresta Canto (1975) [FLAC] {SICJ 95}\02 - Let Me.wav

Pre-gap length 0:00:03.27

Peak level 98.8 %
Extraction speed 2.5 X
Track quality 99.9 %
Test CRC 629EE020
Copy CRC 629EE020
Accurately ripped (confidence 1) [7294DAB0] (AR v2)
Copy OK

Track 3

Filename D:\_EAC\Phil Woods - Floresta Canto (1975) [FLAC] {SICJ 95}\03 - O Morro.wav

Pre-gap length 0:00:03.64

Peak level 98.8 %
Extraction speed 3.4 X
Track quality 100.0 %
Test CRC 7F7AF3C2
Copy CRC 7F7AF3C2
Accurately ripped (confidence 1) [3BCBB078] (AR v2)
Copy OK

Track 4

Filename D:\_EAC\Phil Woods - Floresta Canto (1975) [FLAC] {SICJ 95}\04 - Chaldean Prayer.wav

Pre-gap length 0:00:04.22

Peak level 98.8 %
Extraction speed 3.7 X
Track quality 99.9 %
Test CRC E582F167
Copy CRC E582F167
Accurately ripped (confidence 1) [20213EAA] (AR v2)
Copy OK

Track 5

Filename D:\_EAC\Phil Woods - Floresta Canto (1975) [FLAC] {SICJ 95}\05 - Sails.wav

Pre-gap length 0:00:03.42

Peak level 98.8 %
Extraction speed 4.0 X
Track quality 100.0 %
Test CRC 5524F56E
Copy CRC 5524F56E
Accurately ripped (confidence 1) [205005AB] (AR v2)
Copy OK

Track 6

Filename D:\_EAC\Phil Woods - Floresta Canto (1975) [FLAC] {SICJ 95}\06 - Roses.wav

Pre-gap length 0:00:04.68

Peak level 98.8 %
Extraction speed 4.3 X
Track quality 100.0 %
Test CRC 9E35AD5B
Copy CRC 9E35AD5B
Accurately ripped (confidence 1) [C1268CC3] (AR v2)
Copy OK

Track 7

Filename D:\_EAC\Phil Woods - Floresta Canto (1975) [FLAC] {SICJ 95}\07 - Without You.wav

Pre-gap length 0:00:02.68

Peak level 98.8 %
Extraction speed 4.5 X
Track quality 100.0 %
Test CRC D43D91E1
Copy CRC D43D91E1
Accurately ripped (confidence 1) [CB2AA55A] (AR v2)
Copy OK

Track 8

Filename D:\_EAC\Phil Woods - Floresta Canto (1975) [FLAC] {SICJ 95}\08 - Portrait Of Julia.wav

Pre-gap length 0:00:03.22

Peak level 98.8 %
Extraction speed 4.8 X
Track quality 100.0 %
Test CRC CDD88AD5
Copy CRC CDD88AD5
Accurately ripped (confidence 1) [AD2E6A36] (AR v2)
Copy OK

Track 9

Filename D:\_EAC\Phil Woods - Floresta Canto (1975) [FLAC] {SICJ 95}\09 - Jesse.wav

Pre-gap length 0:00:03.50

Peak level 98.8 %
Extraction speed 4.0 X
Track quality 99.9 %
Test CRC D3AC851E
Copy CRC D3AC851E
Accurately ripped (confidence 1) [FDC2C547] (AR v2)
Copy OK

Track 10

Filename D:\_EAC\Phil Woods - Floresta Canto (1975) [FLAC] {SICJ 95}\10 - Menino Das Laranjas.wav

Pre-gap length 0:00:03.36

Peak level 98.8 %
Extraction speed 4.6 X
Track quality 100.0 %
Test CRC 95B3FFB7
Copy CRC 95B3FFB7
Accurately ripped (confidence 1) [A889C571] (AR v2)
Copy OK


All tracks accurately ripped

No errors occurred

End of status report

==== Log checksum 31EA7ECE79E9B979E30E7135BAC1A21DB1104F85D1BE26E801FF30AB507DFA8A ====


Phil Woods - Floresta Canto (1975) {2015 Japan Jazz Collection 1000 Columbia-RCA Series SICJ 95}

Phil Woods - Floresta Canto (1975) {2015 Japan Jazz Collection 1000 Columbia-RCA Series SICJ 95}


see more Japan Jazz Collection 1000 Columbia-RCA Series…


===