Subcategories

The Phil Woods Six - "Live" From The Showboat (1976) {2CD 2014 Japan Jazz Collection 1000 Columbia-RCA Series SICP 3992~3}

Posted By: ruskaval
The Phil Woods Six - "Live" From The Showboat (1976) {2CD 2014 Japan Jazz Collection 1000 Columbia-RCA Series SICP 3992~3}

The Phil Woods Six - "Live" From The Showboat (1976) {2CD 2014 Japan Jazz Collection 1000 Columbia-RCA Series SICP 3992~3}
EAC rip (secure mode) | FLAC (tracks)+CUE+LOG -> 818 Mb | MP3 @320 -> 270 Mb
Full Artwork @ 600 dpi (png) -> 337 Mb | 5% repair rar
© 1976, 2014 RCA / Sony Music Japan | SICP 3992~3
Jazz / Hard Bop / Post Bop / Progressive Jazz / Saxophone

Reissue with the latest remastering. Comes with liner notes. A double-length, ultra-cool set from saxophonist Phil Woods – yet another aspect of his great body of work from the 70s, and a live date that features Woods at the head of a sextet! The group here features acoustic piano, electric guitar, bass, drums, and percussion – all used in ways that are often a bit more organically building and spacious than some of Phil's more intense Rhythm Machine albums – showing a new sensitivity in Woods' music, but one that still has plenty of room for searing, searching solo moments! Titles include "Django's Castle", "A Little Peace", "Brazilian Affair", "I'm Late", "Superwoman", "High Clouds", "How's Your Mama", and "Rain Danse".
The Phil Woods Six - "Live" From The Showboat (1976) {2CD 2014 Japan Jazz Collection 1000 Columbia-RCA Series SICP 3992~3}

In the years since the original double-LP set came out in 1977, my advice to people who ask for jazz recommendations has been that this album is a must for every jazz collection, even if they only intend to buy one saxophone album in their lifetime. No other album I've heard in nearly four decades of listening comes closer to The Holy Grail of Jazz Sax than this one. You don't have to take my word for it - the album won the 1977 Grammy Award for best jazz performance by a group, and was picked as one of the ten best records of that year by Time Magazine. The superlative quality and importance of this performance make it all the more appalling that Amazon lists it (at the time of this writing) as "Currently unavailable. We don't know when or if this item will be back in stock."
Part of this session appeared on CD for the first time in a 1991 Novus release simply titled "Phil Woods Live." Amazon offers this item from alternate vendors, but it's hard to recognize because there's no track list and few other details given in the product listing. I have this release, and it's great, but it leaves out 49 minutes of music that was on the original LP set.
In addition to the best alto and soprano sax playing you'll find anywhere, the rest of the group excels in their solo opportunities and generally demonstrates what a well-oiled jazz machine should sound like. The arrangements are incredibly innovative. You won't believe that old tunes like "Cheek to Cheek" and "I'm Late" can cook this hot. On the slow side, "Superwoman" is pure seduction. Another of my favorites is "High Clouds," a fast mover that has brilliant interplay between Woods and guitarist Harry Leahey. Also memorable is the 22-minute "Brazilian Affair," a four-part suite that gets more energetic with each movement (and is not included on the 1991 release).
Thankfully, the tape recorder was running when this master saxophonist was at his peak, so we can experience this inspired session (if we can find somewhere to buy the CD). Also check out three other outstanding albums from the same era: "The New Phil Woods Album," "Floresta Canto," and "Song for Sisyphus" (also released as "Summer Afternoon Jazz").
The Phil Woods Six - "Live" From The Showboat (1976) {2CD 2014 Japan Jazz Collection 1000 Columbia-RCA Series SICP 3992~3}


AAJ INFO

Personnel:
Phil Woods - alto, soprano sax
Mike Melillo - piano
Harry Leahey - guitar
Steve Gilmore - bass
Bill Goodwin - drums
Alyrio Lima - percussion

tracklist:
CD1

01 - A Sleepin' Bee
02 - Rain Danse
03 - Bye Bye Baby
04 - Django's Castle (All Mine Almost)
05 - Cheek To Cheek
06 - Lady J
07 - Little Niles

The Phil Woods Six - "Live" From The Showboat (1976) {2CD 2014 Japan Jazz Collection 1000 Columbia-RCA Series SICP 3992~3}


CD2
01 - A Little Peace
02 - Brazilian Affair (Intriga Amorosa)
03 - I'm Late
04 - Superwoman
05 - High Clouds
06 - How's Your Mama (Phil's Theme)

The Phil Woods Six - "Live" From The Showboat (1976) {2CD 2014 Japan Jazz Collection 1000 Columbia-RCA Series SICP 3992~3}


Exact Audio Copy V1.1 from 23. June 2015

EAC extraction logfile from 4. April 2016, 19:02

The Phil Woods Six / "Live" From The Showboat (CD1)

Used drive : TSSTcorpCDDVDW SE-208DB Adapter: 1 ID: 0

Read mode : Secure
Utilize accurate stream : Yes
Defeat audio cache : Yes
Make use of C2 pointers : No

Read offset correction : 6
Overread into Lead-In and Lead-Out : No
Fill up missing offset samples with silence : Yes
Delete leading and trailing silent blocks : No
Null samples used in CRC calculations : Yes
Used interface : Native Win32 interface for Win NT & 2000
Gap handling : Appended to previous track

Used output format : User Defined Encoder
Selected bitrate : 1024 kBit/s
Quality : High
Add ID3 tag : No
Command line compressor : C:\Program Files (x86)\FLAC Frontend\tools\flac.exe
Additional command line options : -8 -V -T "ARTIST=%artist%" -T "TITLE=%title%" -T "ALBUM=%albumtitle%" -T "DATE=%year%" -T "TRACKNUMBER=%tracknr%" -T "TOTALTRACKS=%numtracks%" -T "GENRE=%genre%" -T "ALBUMARTIST=%albumartist%" -T "ALBUM ARTIST=%albumartist%" -T "COMMENT=EAC Secure Mode, Test & Copy, AccurateRip, FLAC -8" %source%


TOC of the extracted CD

Track | Start | Length | Start sector | End sector
––––––––––––––––––––––––––––-
1 | 0:00.00 | 7:38.15 | 0 | 34364
2 | 7:38.15 | 8:20.12 | 34365 | 71876
3 | 15:58.27 | 7:55.43 | 71877 | 107544
4 | 23:53.70 | 5:54.47 | 107545 | 134141
5 | 29:48.42 | 11:50.50 | 134142 | 187441
6 | 41:39.17 | 5:31.73 | 187442 | 212339
7 | 47:11.15 | 13:04.37 | 212340 | 271176


Track 1

Filename D:\_EAC\The Phil Woods Six - 'Live' From The Showboat (1976) [FLAC] {2CD SICP 3992~3}\CD1\01 - A Sleepin' Bee.wav

Pre-gap length 0:00:02.00

Peak level 98.8 %
Extraction speed 3.2 X
Track quality 100.0 %
Test CRC 3F7F913A
Copy CRC 3F7F913A
Accurately ripped (confidence 6) [4DB4EC8B] (AR v2)
Copy OK

Track 2

Filename D:\_EAC\The Phil Woods Six - 'Live' From The Showboat (1976) [FLAC] {2CD SICP 3992~3}\CD1\02 - Rain Danse.wav

Pre-gap length 0:00:01.60

Peak level 98.8 %
Extraction speed 3.8 X
Track quality 100.0 %
Test CRC CEB07802
Copy CRC CEB07802
Accurately ripped (confidence 6) [6BEE2B4D] (AR v2)
Copy OK

Track 3

Filename D:\_EAC\The Phil Woods Six - 'Live' From The Showboat (1976) [FLAC] {2CD SICP 3992~3}\CD1\03 - Bye Bye Baby.wav

Pre-gap length 0:00:02.42

Peak level 98.8 %
Extraction speed 4.3 X
Track quality 100.0 %
Test CRC 302EDEFD
Copy CRC 302EDEFD
Accurately ripped (confidence 6) [1573F387] (AR v2)
Copy OK

Track 4

Filename D:\_EAC\The Phil Woods Six - 'Live' From The Showboat (1976) [FLAC] {2CD SICP 3992~3}\CD1\04 - Django's Castle (All Mine Almost).wav

Pre-gap length 0:00:02.10

Peak level 98.8 %
Extraction speed 4.6 X
Track quality 100.0 %
Test CRC DF57BAC6
Copy CRC DF57BAC6
Accurately ripped (confidence 6) [503CF855] (AR v2)
Copy OK

Track 5

Filename D:\_EAC\The Phil Woods Six - 'Live' From The Showboat (1976) [FLAC] {2CD SICP 3992~3}\CD1\05 - Cheek To Cheek.wav

Pre-gap length 0:00:02.42

Peak level 98.8 %
Extraction speed 5.2 X
Track quality 100.0 %
Test CRC D753307C
Copy CRC D753307C
Accurately ripped (confidence 6) [7E43487C] (AR v2)
Copy OK

Track 6

Filename D:\_EAC\The Phil Woods Six - 'Live' From The Showboat (1976) [FLAC] {2CD SICP 3992~3}\CD1\06 - Lady J.wav

Pre-gap length 0:00:01.37

Peak level 98.8 %
Extraction speed 4.4 X
Track quality 99.9 %
Test CRC AA95523A
Copy CRC AA95523A
Accurately ripped (confidence 6) [FEAE97B3] (AR v2)
Copy OK

Track 7

Filename D:\_EAC\The Phil Woods Six - 'Live' From The Showboat (1976) [FLAC] {2CD SICP 3992~3}\CD1\07 - Little Niles.wav

Pre-gap length 0:00:01.45

Peak level 98.8 %
Extraction speed 5.5 X
Track quality 99.9 %
Test CRC C7BEF87E
Copy CRC C7BEF87E
Accurately ripped (confidence 6) [9751DF0D] (AR v2)
Copy OK


All tracks accurately ripped

No errors occurred

End of status report

==== Log checksum BB4E24C26625471801F19A1BB80B11F2298A71B6E93894BFA4C2705D3D9E9D4D ====

Exact Audio Copy V1.1 from 23. June 2015

EAC extraction logfile from 4. April 2016, 20:02

The Phil Woods Six / "Live" From The Showboat (CD2)

Used drive : TSSTcorpCDDVDW SE-208DB Adapter: 1 ID: 0

Read mode : Secure
Utilize accurate stream : Yes
Defeat audio cache : Yes
Make use of C2 pointers : No

Read offset correction : 6
Overread into Lead-In and Lead-Out : No
Fill up missing offset samples with silence : Yes
Delete leading and trailing silent blocks : No
Null samples used in CRC calculations : Yes
Used interface : Native Win32 interface for Win NT & 2000
Gap handling : Appended to previous track

Used output format : User Defined Encoder
Selected bitrate : 1024 kBit/s
Quality : High
Add ID3 tag : No
Command line compressor : C:\Program Files (x86)\FLAC Frontend\tools\flac.exe
Additional command line options : -8 -V -T "ARTIST=%artist%" -T "TITLE=%title%" -T "ALBUM=%albumtitle%" -T "DATE=%year%" -T "TRACKNUMBER=%tracknr%" -T "TOTALTRACKS=%numtracks%" -T "GENRE=%genre%" -T "ALBUMARTIST=%albumartist%" -T "ALBUM ARTIST=%albumartist%" -T "COMMENT=EAC Secure Mode, Test & Copy, AccurateRip, FLAC -8" %source%


TOC of the extracted CD

Track | Start | Length | Start sector | End sector
––––––––––––––––––––––––––––-
1 | 0:00.00 | 8:24.17 | 0 | 37816
2 | 8:24.17 | 21:35.10 | 37817 | 134951
3 | 29:59.27 | 7:26.10 | 134952 | 168411
4 | 37:25.37 | 5:53.60 | 168412 | 194946
5 | 43:19.22 | 5:55.28 | 194947 | 221599
6 | 49:14.50 | 5:31.45 | 221600 | 246469


Track 1

Filename D:\_EAC\The Phil Woods Six - 'Live' From The Showboat (1976) [FLAC] {2CD SICP 3992~3}\CD2\01 - A Little Peace.wav

Pre-gap length 0:00:02.00

Peak level 98.8 %
Extraction speed 2.9 X
Track quality 100.0 %
Test CRC 38E79977
Copy CRC 38E79977
Accurately ripped (confidence 5) [F16E39B9] (AR v2)
Copy OK

Track 2

Filename D:\_EAC\The Phil Woods Six - 'Live' From The Showboat (1976) [FLAC] {2CD SICP 3992~3}\CD2\02 - Brazilian Affair (Intriga Amorosa).wav

Pre-gap length 0:00:02.22

Peak level 98.8 %
Extraction speed 3.9 X
Track quality 99.9 %
Test CRC B79F3D79
Copy CRC B79F3D79
Accurately ripped (confidence 5) [13011AF6] (AR v2)
Copy OK

Track 3

Filename D:\_EAC\The Phil Woods Six - 'Live' From The Showboat (1976) [FLAC] {2CD SICP 3992~3}\CD2\03 - I'm Late.wav

Pre-gap length 0:00:02.42

Peak level 98.8 %
Extraction speed 4.6 X
Track quality 100.0 %
Test CRC 71AD3066
Copy CRC 71AD3066
Accurately ripped (confidence 5) [771AC72F] (AR v2)
Copy OK

Track 4

Filename D:\_EAC\The Phil Woods Six - 'Live' From The Showboat (1976) [FLAC] {2CD SICP 3992~3}\CD2\04 - Superwoman.wav

Pre-gap length 0:00:01.37

Peak level 98.8 %
Extraction speed 4.7 X
Track quality 100.0 %
Test CRC AFCBAFBB
Copy CRC AFCBAFBB
Accurately ripped (confidence 5) [4A7A13B6] (AR v2)
Copy OK

Track 5

Filename D:\_EAC\The Phil Woods Six - 'Live' From The Showboat (1976) [FLAC] {2CD SICP 3992~3}\CD2\05 - High Clouds.wav

Pre-gap length 0:00:02.60

Peak level 98.8 %
Extraction speed 5.0 X
Track quality 100.0 %
Test CRC B54C6E78
Copy CRC B54C6E78
Accurately ripped (confidence 5) [A04A5F5E] (AR v2)
Copy OK

Track 6

Filename D:\_EAC\The Phil Woods Six - 'Live' From The Showboat (1976) [FLAC] {2CD SICP 3992~3}\CD2\06 - How's Your Mama (Phil's Theme).wav

Peak level 98.8 %
Extraction speed 5.1 X
Track quality 100.0 %
Test CRC C2A3300A
Copy CRC C2A3300A
Accurately ripped (confidence 5) [136BBA2F] (AR v2)
Copy OK


All tracks accurately ripped

No errors occurred

End of status report

==== Log checksum 2A43E8F859E3D7AA48A5F04BFC8C11702A60F20AF50168807F8E31F23DA957BC ====


The Phil Woods Six - "Live" From The Showboat (1976) {2CD 2014 Japan Jazz Collection 1000 Columbia-RCA Series SICP 3992~3}


see more Japan Jazz Collection 1000 Columbia-RCA Series…


===