Subcategories

Phil Woods - Phil Woods & The Japanese Rhythm Machine (1975) {2014 Japan Jazz Collection 1000 Columbia-RCA Series SICP 3994}

Posted By: ruskaval
Phil Woods - Phil Woods & The Japanese Rhythm Machine (1975) {2014 Japan Jazz Collection 1000 Columbia-RCA Series SICP 3994}

Phil Woods - Phil Woods & The Japanese Rhythm Machine (1975) {2014 Japan Jazz Collection 1000 Columbia-RCA Series SICP 3994}
EAC rip (secure mode) | FLAC (tracks)+CUE+LOG -> 309 Mb | MP3 @320 -> 105 Mb
Full Artwork @ 600 dpi (png) -> 274 Mb | 5% repair rar
© 1975, 2014 RCA / Sony Music Japan | SICP 3994
Jazz / Hard Bop / Post Bop / Progressive Jazz / Saxophone

Reissue with the latest remastering. Comes with liner notes. Phil Woods toured Japan in 1975 with the Japanese Rhythm Machine (pianist Hideo Ichikawa, bassist Mitsuaki Furuno, and drummer George Otsuka), recording this album at during a concert at Kosei Nenkin Kaikan in Tokyo. The alto saxophonist is at the top of his game, while the rhythm section provides excellent support, with Ichikawa especially shining in the solo spotlight.

Woods' impassioned take of Chick Corea's "Windows" is a terrific opener. Released as a Japanese LP in 1976 and reissued on CD three decades later (also only in Japan), this recording has never had wide distribution in North America, though fans of Phil Woods are advised to acquire it. His powerful treatment of the melancholy ballad "Spring Can Really Hang You Up the Most" is a masterpiece, with a bluesy air in spots. Woods' "Johnny Hodges," a brilliant tribute to the alto sax great of Duke Ellington's orchestra, has a surprising twist, as he plays it on soprano sax, an instrument Hodges did not play at all for the final three decades of his career. Back on alto sax for the final two songs, Woods' rapid-fire setting of "Speak Low" is followed by a brief encore of "Doxy" as a sign-off to the enthusiastic audience.
Phil Woods - Phil Woods & The Japanese Rhythm Machine (1975) {2014 Japan Jazz Collection 1000 Columbia-RCA Series SICP 3994}


Personnel:
Phil Woods, alto and soprano saxophones
Hideo Ichikawa, piano
Mitsuaki Furuno, bass
George Otsuka, drums

Producer: Fumimaru Kawashima
Recording Location: Kosei Nenkin Kaikan Hall, Tokyo, Japan
Recording Date: July 31, 1975


tracklist:
01 - Windows
02 - Spring Can Really Hang You Up The Most
03 - Johnny Hodges
04 - Speak Low
05 - Doxy

Exact Audio Copy V1.1 from 23. June 2015

EAC extraction logfile from 9. April 2016, 21:51

Phil Woods / Phil Woods & The Japanese Rhythm Machine

Used drive : TSSTcorpCDDVDW SE-208DB Adapter: 1 ID: 0

Read mode : Secure
Utilize accurate stream : Yes
Defeat audio cache : Yes
Make use of C2 pointers : No

Read offset correction : 6
Overread into Lead-In and Lead-Out : No
Fill up missing offset samples with silence : Yes
Delete leading and trailing silent blocks : No
Null samples used in CRC calculations : Yes
Used interface : Native Win32 interface for Win NT & 2000
Gap handling : Appended to previous track

Used output format : User Defined Encoder
Selected bitrate : 1024 kBit/s
Quality : High
Add ID3 tag : No
Command line compressor : C:\Program Files (x86)\FLAC Frontend\tools\flac.exe
Additional command line options : -8 -V -T "ARTIST=%artist%" -T "TITLE=%title%" -T "ALBUM=%albumtitle%" -T "DATE=%year%" -T "TRACKNUMBER=%tracknr%" -T "TOTALTRACKS=%numtracks%" -T "GENRE=%genre%" -T "ALBUMARTIST=%albumartist%" -T "ALBUM ARTIST=%albumartist%" -T "COMMENT=EAC Secure Mode, Test & Copy, AccurateRip, FLAC -8" %source%


TOC of the extracted CD

Track | Start | Length | Start sector | End sector
––––––––––––––––––––––––––––-
1 | 0:00.00 | 12:52.20 | 0 | 57919
2 | 12:52.20 | 7:15.27 | 57920 | 90571
3 | 20:07.47 | 9:49.33 | 90572 | 134779
4 | 29:57.05 | 10:54.60 | 134780 | 183889
5 | 40:51.65 | 3:39.12 | 183890 | 200326


Track 1

Filename D:\_EAC\Phil Woods - Phil Woods & The Japanese Rhythm Machine (1975) [FLAC] {SICP 3994}\01 - Windows.wav

Pre-gap length 0:00:02.00

Peak level 98.8 %
Extraction speed 3.1 X
Track quality 100.0 %
Test CRC D243C2A9
Copy CRC D243C2A9
Accurately ripped (confidence 1) [9D2BE9DC] (AR v2)
Copy OK

Track 2

Filename D:\_EAC\Phil Woods - Phil Woods & The Japanese Rhythm Machine (1975) [FLAC] {SICP 3994}\02 - Spring Can Really Hang You Up The Most.wav

Peak level 98.8 %
Extraction speed 3.7 X
Track quality 100.0 %
Test CRC F8D0D2CF
Copy CRC F8D0D2CF
Accurately ripped (confidence 1) [4EEF1947] (AR v2)
Copy OK

Track 3

Filename D:\_EAC\Phil Woods - Phil Woods & The Japanese Rhythm Machine (1975) [FLAC] {SICP 3994}\03 - Johnny Hodges.wav

Pre-gap length 0:00:01.42

Peak level 98.8 %
Extraction speed 4.3 X
Track quality 100.0 %
Test CRC 1F1EFDC6
Copy CRC 1F1EFDC6
Accurately ripped (confidence 1) [310E0A5B] (AR v2)
Copy OK

Track 4

Filename D:\_EAC\Phil Woods - Phil Woods & The Japanese Rhythm Machine (1975) [FLAC] {SICP 3994}\04 - Speak Low.wav

Peak level 98.8 %
Extraction speed 4.8 X
Track quality 100.0 %
Test CRC D56AB1AF
Copy CRC D56AB1AF
Accurately ripped (confidence 1) [DB46D830] (AR v2)
Copy OK

Track 5

Filename D:\_EAC\Phil Woods - Phil Woods & The Japanese Rhythm Machine (1975) [FLAC] {SICP 3994}\05 - Doxy.wav

Peak level 98.8 %
Extraction speed 4.6 X
Track quality 100.0 %
Test CRC D35407D1
Copy CRC D35407D1
Accurately ripped (confidence 1) [69A16705] (AR v2)
Copy OK


All tracks accurately ripped

No errors occurred

End of status report

==== Log checksum 9D50E4CB563D1A438DD5B8000E4D3EDF16998639614D22DEF8FFFB7D979BFD08 ====


Phil Woods - Phil Woods & The Japanese Rhythm Machine (1975) {2014 Japan Jazz Collection 1000 Columbia-RCA Series SICP 3994}

Phil Woods - Phil Woods & The Japanese Rhythm Machine (1975) {2014 Japan Jazz Collection 1000 Columbia-RCA Series SICP 3994}


see more Japan Jazz Collection 1000 Columbia-RCA Series…


===