Subcategories

Phillip Phillips - Collateral (2018)

Posted By: delpotro
Phillip Phillips - Collateral (2018)

Phillip Phillips - Collateral (2018)
EAC Rip | FLAC (tracks+log+.cue) | 00:43:54 | 289 Mb
Pop Rock, Singer-Songwriter | Label: 19 Recordings, Interscope Records

Widely acknowledged as one of the finest of the American Idol winners, Phillip Phillips suffered the shrapnel from arriving too late in the show's run to turn into a true superstar. He came storming out of the gates with "Home," his coronation song for taking the crown in the eleventh season of American Idol in 2012, but once his 2014 sophomore set Behind the Light stiffed, he became embroiled in a lawsuit with 19 Entertainment – another sign that he was hobbled by appearing on Idol late in its run, when all of the management contracts were ironclad. The suit was eventually settled out of court and Phillips switched labels, re-emerging in early 2018 with the valedictory Collateral. Not surprisingly, given the turmoil that arrived after Behind the Light, Phillips is in a sober mood on Collateral. That's not to say he doesn't indulge in lighter moments on the album: the heavy-footed stomp "Love Junkie" is played for grins and the soulful punch of "Don't Tell Me" isn't weighed down by somber intentions. Nevertheless, the overall impression of Collateral is one of an earnest artist seizing an opportunity to relaunch his career, so he's pouring his heart out without a care as to whether he looks foolish. Sometimes, that means Collateral can be a little stiff – Phillips wants to be taken seriously, so he whittles away the levity – but songcraft is song, whether he's attempting a delicate acoustic ballad ("Part of My Plan") or creating an accidental tribute to the sound of Seattle ("My Name," which splices Chris Cornell with Alice in Chains' "I Stay Away"). With the assistance of producers Dave Cobb, Nathan Chapman, and Ryan Hadlock – a team that covers the singer/songwriter's bases from Los Angeles to Nashville – Phillips winds up with an accomplished record that may exist slightly outside the confines of commercial music in 2017, but it's so assured in its intention and craft, Collateral overcomes such niggling nitpicking.
Tracklist:
1. Magnetic (03:15)
2. Part of My Plan (03:39)
3. My Name (04:00)
4. I Dare You (05:04)
5. Sand Castles (04:17)
6. Don't Tell Me (03:04)
7. Miles (03:08)
8. Dance With Me (03:38)
9. Love Junkie (02:59)
10. Her Mystery (03:39)
11. What Will Become of Us (03:33)
12. Into the Wild (03:31)

Exact Audio Copy V1.3 from 2. September 2016

EAC extraction logfile from 23. February 2018, 10:42

Phillip Phillips / Collateral

Used drive : ATAPI DVD A DH16AAL Adapter: 1 ID: 0

Read mode : Secure
Utilize accurate stream : Yes
Defeat audio cache : Yes
Make use of C2 pointers : No

Read offset correction : 6
Overread into Lead-In and Lead-Out : No
Fill up missing offset samples with silence : Yes
Delete leading and trailing silent blocks : No
Null samples used in CRC calculations : Yes
Used interface : Native Win32 interface for Win NT & 2000
Gap handling : Appended to previous track

Used output format : User Defined Encoder
Selected bitrate : 1024 kBit/s
Quality : High
Add ID3 tag : No
Command line compressor : C:\Program Files (x86)\Exact Audio Copy\Flac\flac.exe
Additional command line options : -8 -e -p -V -T "ARTIST=%artist%" -T "TITLE=%title%" -T "ALBUM=%albumtitle%" -T "DATE=%year%" -T "TRACKNUMBER=%tracknr%" -T "GENRE=%genre%" -T "PERFORMER=%albuminterpret%" -T "COMPOSER=%composer%" %haslyrics%–tag-from-file=LYRICS="%lyricsfile%"%haslyrics% -T "ALBUMARTIST=%albumartist%" -T "DISCNUMBER=%cdnumber%" -T "TOTALDISCS=%totalcds%" -T "TOTALTRACKS=%numtracks%" -T "COMMENT=%comment%" %source% -o %dest%


TOC of the extracted CD

Track | Start | Length | Start sector | End sector
––––––––––––––––––––––––––––-
1 | 0:00.00 | 3:15.35 | 0 | 14659
2 | 3:15.35 | 3:39.45 | 14660 | 31129
3 | 6:55.05 | 4:00.67 | 31130 | 49196
4 | 10:55.72 | 5:04.60 | 49197 | 72056
5 | 16:00.57 | 4:17.62 | 72057 | 91393
6 | 20:18.44 | 3:04.46 | 91394 | 105239
7 | 23:23.15 | 3:08.25 | 105240 | 119364
8 | 26:31.40 | 3:38.57 | 119365 | 135771
9 | 30:10.22 | 2:59.03 | 135772 | 149199
10 | 33:09.25 | 3:39.40 | 149200 | 165664
11 | 36:48.65 | 3:33.50 | 165665 | 181689
12 | 40:22.40 | 3:31.37 | 181690 | 197551


Track 1

Filename C:\Zelou\EAC Rips\Phillip Phillips - Collateral (2018) [CD FLAC] {B002781102}\01 - Magnetic.wav

Pre-gap length 0:00:02.00

Peak level 100.0 %
Extraction speed 1.7 X
Track quality 100.0 %
Test CRC 88360B1F
Copy CRC 88360B1F
Accurately ripped (confidence 1) [B2F99412] (AR v2)
Copy OK

Track 2

Filename C:\Zelou\EAC Rips\Phillip Phillips - Collateral (2018) [CD FLAC] {B002781102}\02 - Part of My Plan.wav

Peak level 97.6 %
Extraction speed 1.9 X
Track quality 100.0 %
Test CRC 9CFA4546
Copy CRC 9CFA4546
Accurately ripped (confidence 1) [117585D6] (AR v2)
Copy OK

Track 3

Filename C:\Zelou\EAC Rips\Phillip Phillips - Collateral (2018) [CD FLAC] {B002781102}\03 - My Name.wav

Peak level 99.2 %
Extraction speed 2.1 X
Track quality 100.0 %
Test CRC DE1C914D
Copy CRC DE1C914D
Accurately ripped (confidence 1) [0BAD2005] (AR v2)
Copy OK

Track 4

Filename C:\Zelou\EAC Rips\Phillip Phillips - Collateral (2018) [CD FLAC] {B002781102}\04 - I Dare You.wav

Peak level 99.4 %
Extraction speed 1.8 X
Track quality 99.9 %
Test CRC 09DE95B8
Copy CRC 09DE95B8
Accurately ripped (confidence 1) [BAF2ECFE] (AR v2)
Copy OK

Track 5

Filename C:\Zelou\EAC Rips\Phillip Phillips - Collateral (2018) [CD FLAC] {B002781102}\05 - Sand Castles.wav

Peak level 96.2 %
Extraction speed 2.5 X
Track quality 100.0 %
Test CRC 0F268123
Copy CRC 0F268123
Accurately ripped (confidence 1) [82B6899D] (AR v2)
Copy OK

Track 6

Filename C:\Zelou\EAC Rips\Phillip Phillips - Collateral (2018) [CD FLAC] {B002781102}\06 - Don't Tell Me.wav

Peak level 100.0 %
Extraction speed 1.7 X
Track quality 99.9 %
Test CRC 4C2F70E8
Copy CRC 4C2F70E8
Accurately ripped (confidence 1) [9D381FF3] (AR v2)
Copy OK

Track 7

Filename C:\Zelou\EAC Rips\Phillip Phillips - Collateral (2018) [CD FLAC] {B002781102}\07 - Miles.wav

Peak level 100.0 %
Extraction speed 2.6 X
Track quality 100.0 %
Test CRC 700EF2D5
Copy CRC 700EF2D5
Accurately ripped (confidence 1) [AF60FCF4] (AR v2)
Copy OK

Track 8

Filename C:\Zelou\EAC Rips\Phillip Phillips - Collateral (2018) [CD FLAC] {B002781102}\08 - Dance with Me.wav

Peak level 95.9 %
Extraction speed 2.0 X
Track quality 99.9 %
Test CRC D5F2C361
Copy CRC D5F2C361
Accurately ripped (confidence 1) [4A28AE2A] (AR v2)
Copy OK

Track 9

Filename C:\Zelou\EAC Rips\Phillip Phillips - Collateral (2018) [CD FLAC] {B002781102}\09 - Love Junkie.wav

Peak level 97.2 %
Extraction speed 2.9 X
Track quality 100.0 %
Test CRC F09E2CA7
Copy CRC F09E2CA7
Accurately ripped (confidence 1) [444A61D2] (AR v2)
Copy OK

Track 10

Filename C:\Zelou\EAC Rips\Phillip Phillips - Collateral (2018) [CD FLAC] {B002781102}\10 - Her Mystery.wav

Peak level 100.0 %
Extraction speed 3.0 X
Track quality 100.0 %
Test CRC 606834C6
Copy CRC 606834C6
Accurately ripped (confidence 1) [F8539D65] (AR v2)
Copy OK

Track 11

Filename C:\Zelou\EAC Rips\Phillip Phillips - Collateral (2018) [CD FLAC] {B002781102}\11 - What Will Become of Us.wav

Peak level 95.1 %
Extraction speed 3.1 X
Track quality 100.0 %
Test CRC 1FEECE79
Copy CRC 1FEECE79
Accurately ripped (confidence 1) [4E3248BA] (AR v2)
Copy OK

Track 12

Filename C:\Zelou\EAC Rips\Phillip Phillips - Collateral (2018) [CD FLAC] {B002781102}\12 - Into the Wild.wav

Peak level 100.0 %
Extraction speed 2.3 X
Track quality 99.9 %
Test CRC AC8F6019
Copy CRC AC8F6019
Accurately ripped (confidence 1) [411AA29E] (AR v2)
Copy OK


All tracks accurately ripped

No errors occurred

End of status report

–– CUETools DB Plugin V2.1.6

[CTDB TOCID: Mcxa0nemFNl8phoAQlnkXH.KAtw-] found
Submit result: Mcxa0nemFNl8phoAQlnkXH.KAtw- has been confirmed
Track | CTDB Status
1 | (8/8) Accurately ripped
2 | (8/8) Accurately ripped
3 | (8/8) Accurately ripped
4 | (8/8) Accurately ripped
5 | (8/8) Accurately ripped
6 | (8/8) Accurately ripped
7 | (8/8) Accurately ripped
8 | (8/8) Accurately ripped
9 | (8/8) Accurately ripped
10 | (8/8) Accurately ripped
11 | (8/8) Accurately ripped
12 | (8/8) Accurately ripped


==== Log checksum 6CC0E56C18201A3A49202497BE19376623FE9EAAC98A548FF70A9057ED9272E9 ====



Phillip Phillips - Collateral (2018)

Thanks to the Original ripper sharky77 !