Subcategories

Piirpauke - Terra Nova (1993)

Posted By: intothe
Piirpauke - Terra Nova (1993)

Piirpauke - Terra Nova (1993)
World Music| EAC rip (FLAC+CUE+LOG) + MP3 | 408 + 141 MB | full scans
RockAdillo | 60:50 | RAR with 5% recovery


EAC extraction logfile from 29. May 2009, 13:33

Piirpauke / Muuttolinnut - Terra nova

Used drive : _NEC DVD_RW ND-3500AG Adapter: 0 ID: 0

Read mode : Secure
Utilize accurate stream : Yes
Defeat audio cache : Yes
Make use of C2 pointers : No

Read offset correction : 48
Overread into Lead-In and Lead-Out : No
Fill up missing offset samples with silence : Yes
Delete leading and trailing silent blocks : No
Null samples used in CRC calculations : Yes
Used interface : Native Win32 interface for Win NT & 2000

Used output format : User Defined Encoder
Selected bitrate : 768 kBit/s
Quality : High
Add ID3 tag : No
Command line compressor : C:\Program Files\Exact Audio Copy\FLAC\FLAC.EXE
Additional command line options : -6 -V -T "ARTIST=%a" -T "TITLE=%t" -T "ALBUM=%g" -T "DATE=%y" -T "TRACKNUMBER=%n" -T "GENRE=%m" -T "COMMENT=%e" %s -o %d


TOC of the extracted CD

Track | Start | Length | Start sector | End sector
––––––––––––––––––––––––––––-
1 | 0:00.00 | 1:47.15 | 0 | 8039
2 | 1:47.15 | 2:49.30 | 8040 | 20744
3 | 4:36.45 | 7:22.22 | 20745 | 53916
4 | 11:58.67 | 4:06.50 | 53917 | 72416
5 | 16:05.42 | 5:13.23 | 72417 | 95914
6 | 21:18.65 | 2:21.70 | 95915 | 106559
7 | 23:40.60 | 2:07.37 | 106560 | 116121
8 | 25:48.22 | 6:06.13 | 116122 | 143584
9 | 31:54.35 | 3:36.60 | 143585 | 159844
10 | 35:31.20 | 2:32.02 | 159845 | 171246
11 | 38:03.22 | 3:12.68 | 171247 | 185714
12 | 41:16.15 | 4:03.50 | 185715 | 203989
13 | 45:19.65 | 6:08.12 | 203990 | 231601
14 | 51:28.02 | 2:47.20 | 231602 | 244146
15 | 54:15.22 | 1:59.38 | 244147 | 253109
16 | 56:14.60 | 4:35.40 | 253110 | 273774


Range status and errors

Selected range

Filename J:\eMusic\Rip\Piirpauke - Muuttolinnut - Terra nova.wav

Peak level 69.0 %
Range quality 99.9 %
Copy CRC AA2C1FC5
Copy OK

No errors occurred


AccurateRip summary

Track 1 not present in database
Track 2 not present in database
Track 3 not present in database
Track 4 not present in database
Track 5 not present in database
Track 6 not present in database
Track 7 not present in database
Track 8 not present in database
Track 9 not present in database
Track 10 not present in database
Track 11 not present in database
Track 12 not present in database
Track 13 not present in database
Track 14 not present in database
Track 15 not present in database
Track 16 not present in database

None of the tracks are present in the AccurateRip database

End of status report


By now, most people are aware of World Music and realize that it simply means the appreciation of the best tunes from all over the world. Some people saw it coming years and years ago and were playing it before anybody had thought of calling it World Music or anything. Sakari Kukko - visionary, world traveller and multi-instrumentalist from Finland - saw it coming more than 20 years ago, when he formed the first line-up of Piirpauke and was immediately awarded with a hit. Since that first success with a poignant Karelian folk tune, Sakari has guided his ever-improving line-ups on musical journeys through the delights of Balkan, Turkey, Africa, Latin America and points in between. After more than a dozen albums and many tours and concerts in Spain, Scandinavia, Germany, Switzerland, Belgium, Holland, Cuba, Soviet Union, India and Turkey the band is now ready to set their sights further afield. Sakari and his saxes, flutes and keyboards have never been content with merely polite "fusion music", but have always striven to draw the most fire and beauty from the most inspiring sources, no matter where. With his present international line-up of master musicians from Finland, Spain and Senegal, Sakari is truly an ambassador of World Music. Since attaining accolades as one Finland's top jazz saxophone players in the early seventies, Sakari has steadily added to his array of flutes and woodwinds on his world travels - and he also plays a mean keyboard and is occasionally inspired to launch into a tongue-in-cheek vocal. The countries he has roamed for exotic musical inspiration are too numerous to mention, but he has resided both in Columbia and Spain. - from http://www.rockadillo.fi/piirpauke

Tracks:
1. Karavana (W.A. Mozart/arr. Sakari Kukko) 1:47
2. Tristesa (Sorrow I) (Sakari Kukko/Cinta Hermo) 2:49
3. Suru (Sorrow II) (Teppo Repo) 7:22
4. Caracola (Sakari Kukko/Cinta Hermo) 4:06
5. Secreto (Cinta Hermo) 5:13
6. Savonmuan Hilima (Erkki Salama) 2:21
7. Hilpeä hanuri (Jolly Accordion) (Vaino Tuominen) 2:07
8. Raga Shostelerias (Sakari Kukko/Cinta Hermo) 6:06
9. Wonto minima (Ismael Sane) 3:36
10. Tuohinen sormus (Birch Bark Ring) (Matti Jurva/Traditional) 2:32
11. Marssi (A March) (Teppo Repo) 3:12
12. Hämäläinen kehtolaulu (Lullaby from Tavastia) (Traditional/arr. Sakari Kukko) 4:03
13. Selestat (Traditional/Cinta Hermo/arr. Sakari Kukko) 6:08
14. Maijan polkka (Maija's Polka) (Vili Vesterinen) 2:47
15. Muuttolinnut (Migratory Birds) (Valto Tynnila/Martti Jappila) 1:59
16. Terra Nova (Sakari Kukko/Cinta Hermo/Ismael Sane) 4:35

Personnel:
Sakari Kukko (Keyboards, Saxophones, Flute, Drum Set, Percussion and Vocals)
Cinta Hermo (Vocals, Acoustic Guitar, Castanets and Flamenco Dance)
Ismael Sane (Percussion and Vocals)
Outi Nieminen (Kantele) - 2,5,8,12
T.T. Oksala (Electric Guitar) - 1
Babakar Faye (Darbuka) - 16
Auvo Z. Kaipaala (Vocal) - 6,10,15

FLAC
MP3