Subcategories

Pink Floyd - Dark Side of the Moon - First Mastering Harvest Issue (1983)

Posted By: gesenius
Pink Floyd - Dark Side of the Moon - First Mastering Harvest Issue (1983)

Pink Floyd - Dark Side of the Moon - First Mastering Harvest Issue (1983)
Rock | EAC| FLAC, IMG+CUE, LOG | 288 MB | 4 Files | 1 CD | Complete 300 dpi Scans
Rock | Label:Harvest | RAR 3% Rec. | Rapidshare

Pink Floyd - Dark Side of the Moon - First Mastering Harvest Issue (1983)

RARE
Many still consider this the finest mix and issue
Mastering Number 1 – Sony (Japan) Mastering
Track Peak Levels: 39.9 / 43.3 / 70.1 / 55.2 / 72.3 / 44.5 / 53.9 / 54.6 / 61.2
First issue - Harvest Records, catalog number CDP 7 46001 2, black Harvest label, Made in Japan on label

Audio CD (
Original Release Date:1983
Number of Discs:1
Label:Harvest

Tracks
____________________
CD 1
1. Speak To Me/Breathe (Breathe In The Air)
2. On The Run
3. Time
4. The Great Gig In The Sky
5. Money
6. Us And Them
7. Any Colour You Like
8. Brain Damage
9. Eclipse

Exact Audio Copy V0.99 prebeta 4 from 23. January 2008
EAC extraction logfile from 14. May 2009, 0:08
Pink Floyd / Dark Side of the Moon
Used drive : Adapter: 1 ID: 0
Read mode : Secure
Utilize accurate stream : Yes
Defeat audio cache : No
Make use of C2 pointers : No
Read offset correction : 102
Overread into Lead-In and Lead-Out : No
Fill up missing offset samples with silence : Yes
Delete leading and trailing silent blocks : No
Null samples used in CRC calculations : Yes
Used interface : Native Win32 interface for Win NT & 2000
Used output format : User Defined Encoder
Selected bitrate : 768 kBit/s
Quality : High
Add ID3 tag : No
Command line compressor : C:\Program Files\Exact Audio Copy\FLAC\FLAC.EXE
Additional command line options : -6 -V -T "ARTIST=%a" -T "TITLE=%t" -T "ALBUM=%g" -T "DATE=%y" -T "TRACKNUMBER=%n" -T "GENRE=%m" -T "COMMENT=%e" %s -o %d
TOC of the extracted CD
Track | Start | Length | Start sector | End sector
––––––––––––––––––––––––––––-
1 | 0:00.00 | 3:57.35 | 0 | 17809
2 | 3:57.35 | 3:31.72 | 17810 | 33706
3 | 7:29.32 | 7:05.10 | 33707 | 65591
4 | 14:34.42 | 4:47.05 | 65592 | 87121
5 | 19:21.47 | 6:23.40 | 87122 | 115886
6 | 25:45.12 | 7:48.65 | 115887 | 151051
7 | 33:34.02 | 3:25.45 | 151052 | 166471
8 | 36:59.47 | 3:50.33 | 166472 | 183754
9 | 40:50.05 | 2:06.50 | 183755 | 193254
Range status and errors
Selected range
Filename Pink Floyd - Dark Side of the Moon - Harvest Issue.wav
Peak level 72.3 %
Range quality 100.0 %
Copy CRC 2F99373C
Copy OK
No errors occurred
AccurateRip summary
Track 1 accurately ripped (confidence 5) [E4F25298]
Track 2 accurately ripped (confidence 5) [A50472FC]
Track 3 accurately ripped (confidence 5) [6BF7E16E]
Track 4 accurately ripped (confidence 5) [FDCEE3B1]
Track 5 accurately ripped (confidence 5) [55075984]
Track 6 accurately ripped (confidence 5) [E1163CED]
Track 7 accurately ripped (confidence 5) [6A5DB262]
Track 8 accurately ripped (confidence 5) [B23B60CE]
Track 9 accurately ripped (confidence 5) [B40A4EE4]
All tracks accurately ripped
End of status report