Subcategories

Poe - Hello (1995)

Posted By: muddboogers
Poe - Hello (1995)

Poe - Hello (1995)
EAC | FLAC Image with CUE & LOG | 41:30 mins | Scans | RAR 3% Recovery | 238 MB
Alternative Rock / Pop Rock | 1995 Atlantic Records, Modern Records #92605-2

Blending technology with organic rock, Hello, the 1995 debut by the well-traveled singer/songwriter Poe is a striking record that manages to groove and feed the head with well-written observations. Working with a myriad of co-writers, producers (including Dave Jerden of Alice in Chains fame), and musicians (including ex-Guns N' Roses drummer Matt Sorum), Hello could have been an unfocused mess. However, that is not the case; the album has a definite cohesiveness. The title track leads things off with a hypnotic, ambient pop vibe as Poe attempts to communicate with someone who will not be reached. At the other end of the spectrum is the following cut, "Trigger Happy Jack." Over grinding guitars, Poe again expresses an inability to communicate with someone and the chorus is immediately memorable. Maybe a little schizophrenic musically, Hello is an enjoyable romp where practically each track is a surprise waiting to be found. ~ Tom Demalon, allmusic.com
Hello @ Discogs

Tracklist:
1. Hello
2. Trigger Happy Jack (Drive By A Go-Go)
3. Choaking The Cherry
4. That Day
5. Angry Johnny
6. Dolphin
7. Another World
8. Fingertips
9. Beautiful Girl
10. Junkie
11. Fly Away

Exact Audio Copy V1.0 beta 2 from 29. April 2011

EAC extraction logfile from 8. August 2011, 19:14

Poe / Hello

Used drive : TDK CDRW4800B Adapter: 2 ID: 1

Read mode : Secure
Utilize accurate stream : Yes
Defeat audio cache : Yes
Make use of C2 pointers : No

Read offset correction : 6
Overread into Lead-In and Lead-Out : No
Fill up missing offset samples with silence : Yes
Delete leading and trailing silent blocks : No
Null samples used in CRC calculations : Yes
Used interface : Native Win32 interface for Win NT & 2000

Used output format : Internal WAV Routines
Sample format : 44.100 Hz; 16 Bit; Stereo


TOC of the extracted CD

Track | Start | Length | Start sector | End sector
––––––––––––––––––––––––––––-
1 | 0:00.32 | 4:31.50 | 32 | 20406
2 | 4:32.07 | 3:36.53 | 20407 | 36659
3 | 8:08.60 | 3:34.07 | 36660 | 52716
4 | 11:42.67 | 2:41.08 | 52717 | 64799
5 | 14:24.00 | 4:18.30 | 64800 | 84179
6 | 18:42.30 | 3:47.65 | 84180 | 101269
7 | 22:30.20 | 3:20.52 | 101270 | 116321
8 | 25:50.72 | 4:21.15 | 116322 | 135911
9 | 30:12.12 | 3:42.63 | 135912 | 152624
10 | 33:55.00 | 3:00.32 | 152625 | 166156
11 | 36:55.32 | 4:34.45 | 166157 | 186751


Range status and errors

Selected range

Filename E:\[# AvaxHome #]\Poe - Hello.wav

Peak level 100.0 %
Extraction speed 6.5 X
Range quality 99.9 %
Test CRC 80BECECC
Copy CRC 80BECECC
Copy OK

No errors occurred


AccurateRip summary

Track 1 accurately ripped (confidence 11) [A9949E32] (AR v2)
Track 2 accurately ripped (confidence 10) [94E768E7] (AR v2)
Track 3 accurately ripped (confidence 10) [D3F9D1F3] (AR v2)
Track 4 accurately ripped (confidence 10) [F73F2673] (AR v2)
Track 5 accurately ripped (confidence 11) [0BB096B2] (AR v2)
Track 6 accurately ripped (confidence 11) [DA6ACD32] (AR v2)
Track 7 accurately ripped (confidence 11) [6679DC00] (AR v2)
Track 8 accurately ripped (confidence 11) [9FA59630] (AR v2)
Track 9 accurately ripped (confidence 11) [873EDF20] (AR v2)
Track 10 accurately ripped (confidence 10) [B1AE5EF6] (AR v2)
Track 11 accurately ripped (confidence 10) [8C7253C4] (AR v2)

All tracks accurately ripped

End of status report

==== Log checksum 10F10A9E651008223D718C3A5C028A8392243136E26C082DA3587DD38922F9E6 ====