Subcategories

Poor Genetic Material - Island Noises (2CD) (2011)

Posted By: Domestos
Poor Genetic Material - Island Noises (2CD) (2011)

Poor Genetic Material - Island Noises (2CD) (2011)
EAC Rip | FLAC (image+.cue, log) ~ 284.48 Mb + 308.21 Mb | 97:42 | Cover
Crossover Prog | Country: Germany | Label: QuiXote Music - PRR 305

Island Noises is a double concept album based on The Tempest by William Shakespeare, there’s a sorcerer, a spirit of the air, a monstrous creature, it’s about the stuff that dreams are made on … sounds like a prog-concept album? – Exactly!

Poor Genetic Material was founded by Stefan Glomb (guitar) and Philipp Jaehne (keyboards) as an experimental project mainly working on soundtrack material. When they met German art rock band Alias Eye in late 2000, opportunity was there to work on more song-oriented material. Singer Philip Griffiths (son of the legendary Beggars Opera singer Martin Griffiths) joined the original duo to work and record together. During the last few years Poor Genetic Material have made a name for themselves in the prog- and artrock scene. The seasons series, a long term project covering four albums
(Summerland, Leap into Fall, Winter’s Edge and Spring Tidings), generated a lot of interest for the band.

Island Noises is a double concept album based on The Tempest by William Shakespeare. Yet, the album does not try to re-tell the but rather explores certain ideas, atmospheres and characters plot of the original play and so becomes a work in its own right. “Why Shakespeare?” “Why The Tempest?” you may ask. Well, there’s a sorcerer, a spirit of the air, a monstrous creature, there is romance and attempted murder, it’s about the stuff that dreams are made on … sounds like a prog-concept album? – Exactly!
Enough said: This album can speak for itself. Is is, indeed, "full of noises", full of "sweet airs that give delight".

Track List CD1:
1. Roarers (5:39)
2. A Dance So Strange (4:44)
3. Brave New World - part 1 (3:56)
4. Brave New World - part 2 (5:52)
5. Caliban's Dream (6:09)
6. Island Noises (19:55)

Track List CD2:
1. Banquet Of Illusion (5:49)
2. Assassins And Sleepers (5:47)
3. In A State Of Grace (6:22)
4. Fountain Of Innocence (8:38)
5. Sycorax (4:32)
6. Ariel (2:42)
7. Drowning The Book (9:04)
8. Dreamstuff (8:33)

- Phil Griffiths / vocals
- Stefan Glomb / guitars
- Philipp Jaehne / piano, organ
- Dennis Sturm / bass
- Dominik Steinbacher / drums

With:
Jutta Brandl – voice
Pia Darmstaedter – flute
Martin Lengsfeld – piano
Martin Griffiths – recitation

Exact Audio Copy V1.0 beta 4 from 7. December 2014

Отчёт EAC об извлечении, выполненном 8. апреля 2018, 19:28

Poor Genetic Material / Island Noises (Disc 1)

Дисковод: HL-DT-STDVDRAM GU71N Adapter: 1 ID: 0

Режим чтения : Достоверность
Использование точного потока : Да
Отключение кэша аудио : Да
Использование указателей C2 : Нет

Коррекция смещения при чтении : 6
Способность читать области Lead-in и Lead-out : Нет
Заполнение пропущенных сэмплов тишиной : Да
Удаление блоков с тишиной в начале и конце : Нет
При вычислениях CRC использовались нулевые сэмплы : Да
Интерфейс : Встроенный Win32-интерфейс для Win NT/2000

Выходной формат : Пользовательский кодировщик
Выбранный битрейт : 768 kBit/s
Качество : Высокий
Добавление ID3-тега : Нет
Утилита сжатия : C:\Program Files (x86)\Exact Audio Copy\FLAC\FLAC.EXE
Дополнительные параметры : -V -8 -T "Date=%year%" -T "Genre=%genre%" %source%

TOC извлечённого CD

Трек | Старт | Длительность | Начальный сектор | Конечный сектор
––––––––––––––––––––––––––––––––––-
1 | 0:00.00 | 5:38.74 | 0 | 25423
2 | 5:38.74 | 4:44.09 | 25424 | 46732
3 | 10:23.08 | 3:56.59 | 46733 | 64491
4 | 14:19.67 | 5:52.05 | 64492 | 90896
5 | 20:11.72 | 6:08.74 | 90897 | 118570
6 | 26:20.71 | 19:55.08 | 118571 | 208203

Характеристики диапазона извлечения и сообщения об ошибках

Выбранный диапазон

Имя файла D:\Users\User\Documents\Poor Genetic Material - Island Noises (Disc 1).wav

Пиковый уровень 97.1 %
Скорость извлечения 4.3 X
Качество диапазона 100.0 %
CRC теста C578BBAA
CRC копии C578BBAA
Копирование… OK

Ошибок не произошло

AccurateRip: сводка

Трек 1 : извлечено точно (доверие 2) [92ABBBEF] (AR v2)
Трек 2 : извлечено точно (доверие 4) [39E10A42] (AR v1)
Трек 3 : извлечено точно (доверие 2) [A8416374] (AR v2)
Трек 4 : извлечено точно (доверие 4) [75DCAD75] (AR v1)
Трек 5 : извлечено точно (доверие 2) [6091B928] (AR v2)
Трек 6 : извлечено точно (доверие 2) [743D09F2] (AR v2)

Все треки извлечены точно

Конец отчёта

==== Контрольная сумма отчёта E0D1EDEF9A0E956E17753F6704387473578B76DA955096987EC096445433DD03 ====

Exact Audio Copy V1.0 beta 4 from 7. December 2014

Отчёт EAC об извлечении, выполненном 8. апреля 2018, 19:58

Poor Genetic Material / Island Noises (Disc 2)

Дисковод: HL-DT-STDVDRAM GU71N Adapter: 1 ID: 0

Режим чтения : Достоверность
Использование точного потока : Да
Отключение кэша аудио : Да
Использование указателей C2 : Нет

Коррекция смещения при чтении : 6
Способность читать области Lead-in и Lead-out : Нет
Заполнение пропущенных сэмплов тишиной : Да
Удаление блоков с тишиной в начале и конце : Нет
При вычислениях CRC использовались нулевые сэмплы : Да
Интерфейс : Встроенный Win32-интерфейс для Win NT/2000

Выходной формат : Пользовательский кодировщик
Выбранный битрейт : 768 kBit/s
Качество : Высокий
Добавление ID3-тега : Нет
Утилита сжатия : C:\Program Files (x86)\Exact Audio Copy\FLAC\FLAC.EXE
Дополнительные параметры : -V -8 -T "Date=%year%" -T "Genre=%genre%" %source%

TOC извлечённого CD

Трек | Старт | Длительность | Начальный сектор | Конечный сектор
––––––––––––––––––––––––––––––––––-
1 | 0:00.00 | 5:49.46 | 0 | 26220
2 | 5:49.46 | 5:47.60 | 26221 | 52305
3 | 11:37.31 | 6:22.21 | 52306 | 80976
4 | 17:59.52 | 8:38.03 | 80977 | 119829
5 | 26:37.55 | 4:32.00 | 119830 | 140229
6 | 31:09.55 | 2:42.11 | 140230 | 152390
7 | 33:51.66 | 9:04.05 | 152391 | 193195
8 | 42:55.71 | 8:33.52 | 193196 | 231722

Характеристики диапазона извлечения и сообщения об ошибках

Выбранный диапазон

Имя файла D:\Users\User\Documents\Poor Genetic Material - Island Noises (Disc 2).wav

Пиковый уровень 97.1 %
Скорость извлечения 4.4 X
Качество диапазона 100.0 %
CRC теста 7116B90C
CRC копии 7116B90C
Копирование… OK

Ошибок не произошло

AccurateRip: сводка

Трек 1 : извлечено точно (доверие 2) [A1D57C0A] (AR v2)
Трек 2 : извлечено точно (доверие 2) [149E89DC] (AR v2)
Трек 3 : извлечено точно (доверие 2) [AD52EF9B] (AR v2)
Трек 4 : извлечено точно (доверие 2) [D2067ABB] (AR v2)
Трек 5 : извлечено точно (доверие 2) [220CE791] (AR v2)
Трек 6 : извлечено точно (доверие 2) [20450166] (AR v2)
Трек 7 : извлечено точно (доверие 2) [349A5353] (AR v2)
Трек 8 : извлечено точно (доверие 2) [51F1DA50] (AR v2)

Все треки извлечены точно

Конец отчёта

==== Контрольная сумма отчёта DBF22D8083980AD9B8317C96D11D7C7E05881286D5ABED6273C1DE3E165EE1B5 ====

All thanks go to the ringo13

More Music in My Blog
Follow My RSS Channel