Subcategories

Pop Will Eat Itself - Def Comms 86-18 (2018)

Posted By: delpotro
Pop Will Eat Itself - Def Comms 86-18 (2018)

Pop Will Eat Itself - Def Comms 86-18 (2018)
EAC Rip | FLAC (tracks+log+.cue) - 1,85 Gb | MP3 CBR 320 kbps - 656 Mb | 04:46:27
Alternative Rock, Industrial Rock | Label: Cherry Red Records

Career-spanning 4CD collection, compiled with founder member and vocalist Graham Crabb. Contains material from all eight of the band’s albums, plus the ‘lost’ 1996 album, as well as unheard alternate versions and a recently recorded demo.

‘Poppiecock’, ‘Sweet Sweet Pie’, ‘Love Missile F1-11’, ‘Beaver Patrol’, ‘Def Con One’, ‘Can You Dig It?’, ‘Wise Up! Sucker’, ‘Dance Of The Mad’, ‘Cicciolina’, ‘X, Y and Zee’, ‘92°F’, ‘Karmadrome’, ‘Bulletproof!’, ‘Get The Girl! Kill The Baddies!’, ‘Ich Bin Ein Auslander’, ‘RSVP’, ‘Everythings Cool?’, ‘Axe Of Men 2010’, ‘Chaos And Mayhem’, ‘Disguise’, ‘Watch The Bitch Blow’, ‘Reclaim The Game’ and more…

Emerging from Stourbridge in the mid-1980s, Pop Will Eat Itself quickly progressed from two minute, punk-inspired indie hits to sample-heavy hip hop, house, techno and industrial rock. Along the way, the band scored countless hit singles and albums, toured the world and became a much-loved mainstay of the UK music scene during the late 1980s and 1990s. Having reached the end of the line in 1996, the band reformed in 2011, so far releasing two new albums and continuing to record and perform live to an enthusiastic international fanbase, including recent trips to the USA and Australia.
“Communications” brings together material from across PWEI’s entire career for the first time, compiled with vocalist Graham Crabb and including unreleased material supplied exclusively for this release.

Stylish, modern and complete, this is the definitive PWEI experience for both long established fans, the new and the curious.
Tracklist:
DISC ONE:
1986-1989
1. Sweet Sweet Pie
2. Theresapsychopath In My Soup (Early Version)
3. Sick Little Girl
4. The Devil Inside
5. Orgone Accumulator
6. Everything That Rises (New Version)
7. Love Missile F1-11
8. Ugly (Band Version)
9. Oh Grebo I Think I Love You (New Version)
10. Grebo Guru
11. Beaver Patrol
12. She's Surreal
13. There Is No Love Between Us Anymore (7" Mix)
14. Kiss That Girl
15. Radio PWEI
16. Def Con One 1989AD
17. Not Now James, We're Busy
18. Can U Dig It? (7" Mix)
19. Preaching To The Perverted (Remix)
20. Satelite Ecstatica
21. PWEI-Zation
22. Wise Up! Sucker (7" Version)
23. Orgyone Stimulator
24. Inject Me

DISC TWO:
1990-1993
1. Dance Of The Mad (Seven)
2. 88 Seconds… & Still Counting
3. Cicciolina (7" Mix)
4. X, Y And Zee (Electric Sunshine Style)
5. Another Man''s Rhubarb
6. 92°F (The 3rd Degree: Feat. Sylvia Tella)
7. Nightmare At 20,000 Feet
8. Psychosexual
9. Very Metal Noise Pollution
10. Get The Girl, Kill The Baddies (Sherwood 7" Mix)
11. Good From Far, Far From Good
12. Karmadrome (7" Mix)
13. Mother
14. Bulletproof! (Adrian Sherwood Remix)
15. Eat Me Drink Me Love Me Kill Me (7" Version)
16. Pretty Pretty
17. Rockahula Baby
18. Urban Futuristic

DISC THREE:
1993-2018
1. Ich Bin Ein Auslander (7" Mix)
2. Rsvp (7" Mix)
3. Cape Connection (Exclusive Version) *
4. Kick To Kill
5. Familus Horribilus (7" Mix)
6. Everything'™s Cool?
7. Games Without Frontiers
8. No Contest
9. Talent+attitude=$
10. 100% Is **it
11. The Demon
12. Axe Of Men 2010 (Crabbi Remix)
13. Chaos And Mayhem
14. Equal Zero
15. Disguise
16. Watch The Bitch Blow
17. Reclaim The Game (Original Version: Feat. B Negão)
18. 21st Century English Civil War

*PREVIOUSLY UNRELEASED

DISC FOUR:
REMIXES, RARITIES AND UNRELEASED
1. There Is No Love Between Us Anymore
2. (Specially Extended Dance Mix)
3. Def Con One (Doomsday Power Mix)
4. Wise Up Sucker (12" Youth Mix)
5. Very Metal (Feb '89 Demo)
6. Pwei-Zation (12" Mix)
7. Dance Of The Mad 'n' Bad (12" Mix)
8. 92°F (Boilerhouse "The Birth" Mix)
9. Rock Of Ages
10. Eat Me Drink Me Dub Me Kill Me
11. Get The Girl (Sherwood 12" Dub)
12. Ich Bin Ein Auslander (Die Krupps Mix)
13. Kick2kill (Jim Foetus Seersucker Mix)
14. Fatman (Session Version) *
15. Oldskool Cool (Ravey Mix) *
16. Eyes Wide Open *

*PREVIOUSLY UNRELEASED

Exact Audio Copy V1.3 from 2. September 2016

EAC extraction logfile from 27. September 2018, 19:44

Pop Will Eat Itself / Def Comms 86 - 18

Used drive : ATAPI iHAS224 B Adapter: 1 ID: 0

Read mode : Secure
Utilize accurate stream : Yes
Defeat audio cache : Yes
Make use of C2 pointers : No

Read offset correction : 6
Overread into Lead-In and Lead-Out : No
Fill up missing offset samples with silence : Yes
Delete leading and trailing silent blocks : No
Null samples used in CRC calculations : Yes
Used interface : Native Win32 interface for Win NT & 2000
Gap handling : Appended to previous track

Used output format : User Defined Encoder
Selected bitrate : 1024 kBit/s
Quality : High
Add ID3 tag : No
Command line compressor : C:\Program Files (x86)\Exact Audio Copy\Flac\flac.exe
Additional command line options : -8 -e -p -V -T "ARTIST=%artist%" -T "TITLE=%title%" -T "ALBUM=%albumtitle%" -T "DATE=%year%" -T "TRACKNUMBER=%tracknr%" -T "GENRE=%genre%" -T "PERFORMER=%albuminterpret%" -T "COMPOSER=%composer%" %haslyrics%–tag-from-file=LYRICS="%lyricsfile%"%haslyrics% -T "ALBUMARTIST=%albumartist%" -T "DISCNUMBER=%cdnumber%" -T "TOTALDISCS=%totalcds%" -T "TOTALTRACKS=%numtracks%" -T "COMMENT=%comment%" %source% -o %dest%


TOC of the extracted CD

Track | Start | Length | Start sector | End sector
––––––––––––––––––––––––––––-
1 | 0:00.00 | 2:13.16 | 0 | 9990
2 | 2:13.16 | 1:09.02 | 9991 | 15167
3 | 3:22.18 | 2:30.56 | 15168 | 26473
4 | 5:52.74 | 1:47.21 | 26474 | 34519
5 | 7:40.20 | 1:58.49 | 34520 | 43418
6 | 9:38.69 | 2:33.67 | 43419 | 54960
7 | 12:12.61 | 2:47.17 | 54961 | 67502
8 | 15:00.03 | 1:35.68 | 67503 | 74695
9 | 16:35.71 | 3:30.37 | 74696 | 90482
10 | 20:06.33 | 3:42.24 | 90483 | 107156
11 | 23:48.57 | 3:08.68 | 107157 | 121324
12 | 26:57.50 | 4:10.00 | 121325 | 140074
13 | 31:07.50 | 3:38.19 | 140075 | 156443
14 | 34:45.69 | 1:47.74 | 156444 | 164542
15 | 36:33.68 | 3:38.68 | 164543 | 180960
16 | 40:12.61 | 4:01.22 | 180961 | 199057
17 | 44:14.08 | 3:11.08 | 199058 | 213390
18 | 47:25.16 | 3:16.68 | 213391 | 228158
19 | 50:42.09 | 3:25.17 | 228159 | 243550
20 | 54:07.26 | 3:33.54 | 243551 | 259579
21 | 57:41.05 | 3:10.53 | 259580 | 273882
22 | 60:51.58 | 3:21.68 | 273883 | 289025
23 | 64:13.51 | 3:03.61 | 289026 | 302811
24 | 67:17.37 | 3:51.63 | 302812 | 320199


Track 1

Filename C:\EAC\Pop Will Eat Itself - Def Comms 86-18 (2018) [FLAC]\Disc 1\01 - Sweet Sweet Pie.wav

Pre-gap length 0:00:02.00

Peak level 99.3 %
Extraction speed 3.0 X
Track quality 100.0 %
Test CRC 40424D67
Copy CRC 40424D67
Track not present in AccurateRip database
Copy OK

Track 2

Filename C:\EAC\Pop Will Eat Itself - Def Comms 86-18 (2018) [FLAC]\Disc 1\02 - Theresapsychopath In My Soup (Early Version).wav

Pre-gap length 0:00:02.00

Peak level 99.3 %
Extraction speed 1.6 X
Track quality 99.8 %
Test CRC E41D893A
Copy CRC E41D893A
Track not present in AccurateRip database
Copy OK

Track 3

Filename C:\EAC\Pop Will Eat Itself - Def Comms 86-18 (2018) [FLAC]\Disc 1\03 - Sick Little Girl.wav

Pre-gap length 0:00:01.16

Peak level 99.3 %
Extraction speed 2.5 X
Track quality 99.9 %
Test CRC B57B0FBB
Copy CRC B57B0FBB
Track not present in AccurateRip database
Copy OK

Track 4

Filename C:\EAC\Pop Will Eat Itself - Def Comms 86-18 (2018) [FLAC]\Disc 1\04 - The Devil Inside.wav

Pre-gap length 0:00:01.82

Peak level 99.3 %
Extraction speed 3.3 X
Track quality 100.0 %
Test CRC 4B11F7E8
Copy CRC 4B11F7E8
Track not present in AccurateRip database
Copy OK

Track 5

Filename C:\EAC\Pop Will Eat Itself - Def Comms 86-18 (2018) [FLAC]\Disc 1\05 - Orgone Accumulator.wav

Pre-gap length 0:00:01.60

Peak level 99.3 %
Extraction speed 3.5 X
Track quality 100.0 %
Test CRC 3462F89A
Copy CRC 3462F89A
Track not present in AccurateRip database
Copy OK

Track 6

Filename C:\EAC\Pop Will Eat Itself - Def Comms 86-18 (2018) [FLAC]\Disc 1\06 - Everything That Rises (New Version).wav

Pre-gap length 0:00:01.52

Peak level 99.3 %
Extraction speed 3.9 X
Track quality 100.0 %
Test CRC ED0C66D2
Copy CRC ED0C66D2
Track not present in AccurateRip database
Copy OK

Track 7

Filename C:\EAC\Pop Will Eat Itself - Def Comms 86-18 (2018) [FLAC]\Disc 1\07 - Love Missile F1-11.wav

Pre-gap length 0:00:01.65

Peak level 99.3 %
Extraction speed 4.1 X
Track quality 100.0 %
Test CRC 041A5D29
Copy CRC 041A5D29
Track not present in AccurateRip database
Copy OK

Track 8

Filename C:\EAC\Pop Will Eat Itself - Def Comms 86-18 (2018) [FLAC]\Disc 1\08 - Ugly (Band Version).wav

Pre-gap length 0:00:00.84

Peak level 99.3 %
Extraction speed 2.5 X
Track quality 99.8 %
Test CRC E47A06E3
Copy CRC E47A06E3
Track not present in AccurateRip database
Copy OK

Track 9

Filename C:\EAC\Pop Will Eat Itself - Def Comms 86-18 (2018) [FLAC]\Disc 1\09 - Oh Grebo I Think I Love You (New Version).wav

Pre-gap length 0:00:01.66

Peak level 99.3 %
Extraction speed 3.6 X
Track quality 99.9 %
Test CRC 092C38E3
Copy CRC 092C38E3
Track not present in AccurateRip database
Copy OK

Track 10

Filename C:\EAC\Pop Will Eat Itself - Def Comms 86-18 (2018) [FLAC]\Disc 1\10 - Grebo Guru.wav

Pre-gap length 0:00:01.20

Peak level 99.3 %
Extraction speed 4.9 X
Track quality 100.0 %
Test CRC A79917B8
Copy CRC A79917B8
Track not present in AccurateRip database
Copy OK

Track 11

Filename C:\EAC\Pop Will Eat Itself - Def Comms 86-18 (2018) [FLAC]\Disc 1\11 - Beaver Patrol.wav

Pre-gap length 0:00:02.20

Peak level 99.3 %
Extraction speed 3.8 X
Track quality 99.9 %
Test CRC D42F6EBE
Copy CRC D42F6EBE
Track not present in AccurateRip database
Copy OK

Track 12

Filename C:\EAC\Pop Will Eat Itself - Def Comms 86-18 (2018) [FLAC]\Disc 1\12 - She's Surreal.wav

Pre-gap length 0:00:01.60

Peak level 99.3 %
Extraction speed 4.3 X
Track quality 99.9 %
Test CRC 84467CF2
Copy CRC 84467CF2
Track not present in AccurateRip database
Copy OK

Track 13

Filename C:\EAC\Pop Will Eat Itself - Def Comms 86-18 (2018) [FLAC]\Disc 1\13 - There Is No Love Between Us Anymore (7'' Mix).wav

Pre-gap length 0:00:00.97

Peak level 96.0 %
Extraction speed 5.5 X
Track quality 100.0 %
Test CRC 105C3544
Copy CRC 105C3544
Track not present in AccurateRip database
Copy OK

Track 14

Filename C:\EAC\Pop Will Eat Itself - Def Comms 86-18 (2018) [FLAC]\Disc 1\14 - Kiss That Girl.wav

Pre-gap length 0:00:02.24

Peak level 89.1 %
Extraction speed 4.8 X
Track quality 100.0 %
Test CRC 56A0D3E1
Copy CRC 56A0D3E1
Track not present in AccurateRip database
Copy OK

Track 15

Filename C:\EAC\Pop Will Eat Itself - Def Comms 86-18 (2018) [FLAC]\Disc 1\15 - Radio PWEI.wav

Pre-gap length 0:00:01.82

Peak level 94.3 %
Extraction speed 5.8 X
Track quality 100.0 %
Test CRC 14B9A0B6
Copy CRC 14B9A0B6
Track not present in AccurateRip database
Copy OK

Track 16

Filename C:\EAC\Pop Will Eat Itself - Def Comms 86-18 (2018) [FLAC]\Disc 1\16 - Def Con One 1989AD.wav

Pre-gap length 0:00:01.69

Peak level 99.3 %
Extraction speed 6.0 X
Track quality 100.0 %
Test CRC 2CEBB5C4
Copy CRC 2CEBB5C4
Track not present in AccurateRip database
Copy OK

Track 17

Filename C:\EAC\Pop Will Eat Itself - Def Comms 86-18 (2018) [FLAC]\Disc 1\17 - Not Now James, We're Busy.wav

Pre-gap length 0:00:01.42

Peak level 99.3 %
Extraction speed 5.9 X
Track quality 100.0 %
Test CRC D111A16B
Copy CRC D111A16B
Track not present in AccurateRip database
Copy OK

Track 18

Filename C:\EAC\Pop Will Eat Itself - Def Comms 86-18 (2018) [FLAC]\Disc 1\18 - Can U Dig It (7'' Mix).wav

Pre-gap length 0:00:02.00

Peak level 99.3 %
Extraction speed 6.0 X
Track quality 100.0 %
Test CRC FF90A9B3
Copy CRC FF90A9B3
Track not present in AccurateRip database
Copy OK

Track 19

Filename C:\EAC\Pop Will Eat Itself - Def Comms 86-18 (2018) [FLAC]\Disc 1\19 - Preaching To The Perverted (Remix).wav

Pre-gap length 0:00:01.64

Peak level 99.3 %
Extraction speed 6.4 X
Track quality 100.0 %
Test CRC 48D8B41A
Copy CRC 48D8B41A
Track not present in AccurateRip database
Copy OK

Track 20

Filename C:\EAC\Pop Will Eat Itself - Def Comms 86-18 (2018) [FLAC]\Disc 1\20 - Satellite Ecstatica.wav

Pre-gap length 0:00:01.24

Peak level 99.3 %
Extraction speed 6.5 X
Track quality 100.0 %
Test CRC 4D957795
Copy CRC 4D957795
Track not present in AccurateRip database
Copy OK

Track 21

Filename C:\EAC\Pop Will Eat Itself - Def Comms 86-18 (2018) [FLAC]\Disc 1\21 - PWEI-Zation.wav

Pre-gap length 0:00:01.73

Peak level 99.3 %
Extraction speed 6.5 X
Track quality 100.0 %
Test CRC 6A5B3577
Copy CRC 6A5B3577
Track not present in AccurateRip database
Copy OK

Track 22

Filename C:\EAC\Pop Will Eat Itself - Def Comms 86-18 (2018) [FLAC]\Disc 1\22 - Wise Up! Sucker (7'' Version).wav

Pre-gap length 0:00:02.17

Peak level 99.3 %
Extraction speed 6.7 X
Track quality 100.0 %
Test CRC 78DC240A
Copy CRC 78DC240A
Track not present in AccurateRip database
Copy OK

Track 23

Filename C:\EAC\Pop Will Eat Itself - Def Comms 86-18 (2018) [FLAC]\Disc 1\23 - Orgyone Stimulator.wav

Pre-gap length 0:00:01.12

Peak level 99.3 %
Extraction speed 6.7 X
Track quality 100.0 %
Test CRC 83C80582
Copy CRC 83C80582
Track not present in AccurateRip database
Copy OK

Track 24

Filename C:\EAC\Pop Will Eat Itself - Def Comms 86-18 (2018) [FLAC]\Disc 1\24 - Inject Me.wav

Pre-gap length 0:00:00.72

Peak level 99.3 %
Extraction speed 7.1 X
Track quality 100.0 %
Test CRC 03B2ADCE
Copy CRC 03B2ADCE
Track not present in AccurateRip database
Copy OK


None of the tracks are present in the AccurateRip database

No errors occurred

End of status report

–– CUETools DB Plugin V2.1.6

[CTDB TOCID: PSFW7GSghYJFJ3o2BklDoKD5UfA-] found
Submit result: PSFW7GSghYJFJ3o2BklDoKD5UfA- has been confirmed
Track | CTDB Status
1 | (1/1) Accurately ripped
2 | (1/1) Accurately ripped
3 | (1/1) Accurately ripped
4 | (1/1) Accurately ripped
5 | (1/1) Accurately ripped
6 | (1/1) Accurately ripped
7 | (1/1) Accurately ripped
8 | (1/1) Accurately ripped
9 | (1/1) Accurately ripped
10 | (1/1) Accurately ripped
11 | (1/1) Accurately ripped
12 | (1/1) Accurately ripped
13 | (1/1) Accurately ripped
14 | (1/1) Accurately ripped
15 | (1/1) Accurately ripped
16 | (1/1) Accurately ripped
17 | (1/1) Accurately ripped
18 | (1/1) Accurately ripped
19 | (1/1) Accurately ripped
20 | (1/1) Accurately ripped
21 | (1/1) Accurately ripped
22 | (1/1) Accurately ripped
23 | (1/1) Accurately ripped
24 | (1/1) Accurately ripped


==== Log checksum 60A28A54C0F28AFC3C5B3D09B4689ADDDA6D3C99438B4A019BF372A61DD6D9AB ====

Exact Audio Copy V1.3 from 2. September 2016

EAC extraction logfile from 27. September 2018, 20:43

Pop Will Eat Itself / Def Comms 86 - 18

Used drive : ATAPI iHAS224 B Adapter: 1 ID: 0

Read mode : Secure
Utilize accurate stream : Yes
Defeat audio cache : Yes
Make use of C2 pointers : No

Read offset correction : 6
Overread into Lead-In and Lead-Out : No
Fill up missing offset samples with silence : Yes
Delete leading and trailing silent blocks : No
Null samples used in CRC calculations : Yes
Used interface : Native Win32 interface for Win NT & 2000
Gap handling : Appended to previous track

Used output format : User Defined Encoder
Selected bitrate : 1024 kBit/s
Quality : High
Add ID3 tag : No
Command line compressor : C:\Program Files (x86)\Exact Audio Copy\Flac\flac.exe
Additional command line options : -8 -e -p -V -T "ARTIST=%artist%" -T "TITLE=%title%" -T "ALBUM=%albumtitle%" -T "DATE=%year%" -T "TRACKNUMBER=%tracknr%" -T "GENRE=%genre%" -T "PERFORMER=%albuminterpret%" -T "COMPOSER=%composer%" %haslyrics%–tag-from-file=LYRICS="%lyricsfile%"%haslyrics% -T "ALBUMARTIST=%albumartist%" -T "DISCNUMBER=%cdnumber%" -T "TOTALDISCS=%totalcds%" -T "TOTALTRACKS=%numtracks%" -T "COMMENT=%comment%" %source% -o %dest%


TOC of the extracted CD

Track | Start | Length | Start sector | End sector
––––––––––––––––––––––––––––-
1 | 0:00.00 | 4:01.57 | 0 | 18131
2 | 4:01.57 | 3:52.33 | 18132 | 35564
3 | 7:54.15 | 4:42.43 | 35565 | 56757
4 | 12:36.58 | 4:08.56 | 56758 | 75413
5 | 16:45.39 | 4:08.01 | 75414 | 94014
6 | 20:53.40 | 5:22.26 | 94015 | 118190
7 | 26:15.66 | 3:57.51 | 118191 | 136016
8 | 30:13.42 | 2:16.71 | 136017 | 146287
9 | 32:30.38 | 1:25.17 | 146288 | 152679
10 | 33:55.55 | 4:40.28 | 152680 | 173707
11 | 38:36.08 | 4:22.15 | 173708 | 193372
12 | 42:58.23 | 3:52.68 | 193373 | 210840
13 | 46:51.16 | 4:14.37 | 210841 | 229927
14 | 51:05.53 | 3:09.30 | 229928 | 244132
15 | 54:15.08 | 3:14.23 | 244133 | 258705
16 | 57:29.31 | 4:07.62 | 258706 | 277292
17 | 61:37.18 | 3:48.60 | 277293 | 294452
18 | 65:26.03 | 4:44.50 | 294453 | 315802


Track 1

Filename C:\EAC\Pop Will Eat Itself - Def Comms 86-18 (2018) [FLAC]\Disc 2\01 - Dance of the Mad (Seven).wav

Pre-gap length 0:00:02.00

Peak level 99.3 %
Extraction speed 3.4 X
Track quality 100.0 %
Test CRC EA5E6218
Copy CRC EA5E6218
Track not present in AccurateRip database
Copy OK

Track 2

Filename C:\EAC\Pop Will Eat Itself - Def Comms 86-18 (2018) [FLAC]\Disc 2\02 - 88 Seconds… & Still Counting.wav

Pre-gap length 0:00:02.48

Peak level 99.3 %
Extraction speed 3.8 X
Track quality 100.0 %
Test CRC F856F27A
Copy CRC F856F27A
Track not present in AccurateRip database
Copy OK

Track 3

Filename C:\EAC\Pop Will Eat Itself - Def Comms 86-18 (2018) [FLAC]\Disc 2\03 - Cicciolina (7” Mix).wav

Pre-gap length 0:00:01.02

Peak level 97.7 %
Extraction speed 4.2 X
Track quality 100.0 %
Test CRC F6069133
Copy CRC F6069133
Track not present in AccurateRip database
Copy OK

Track 4

Filename C:\EAC\Pop Will Eat Itself - Def Comms 86-18 (2018) [FLAC]\Disc 2\04 - X, Y and Zee (Electric Sunshine Style).wav

Pre-gap length 0:00:01.14

Peak level 99.3 %
Extraction speed 4.4 X
Track quality 100.0 %
Test CRC A54218AC
Copy CRC A54218AC
Track not present in AccurateRip database
Copy OK

Track 5

Filename C:\EAC\Pop Will Eat Itself - Def Comms 86-18 (2018) [FLAC]\Disc 2\05 - Another Man’s Rhubarb.wav

Pre-gap length 0:00:01.96

Peak level 99.3 %
Extraction speed 3.8 X
Track quality 99.9 %
Test CRC ACEDBD06
Copy CRC ACEDBD06
Track not present in AccurateRip database
Copy OK

Track 6

Filename C:\EAC\Pop Will Eat Itself - Def Comms 86-18 (2018) [FLAC]\Disc 2\06 - 92°F (The 3rd Degree- feat. Sylvia Tella).wav

Pre-gap length 0:00:02.16

Peak level 99.3 %
Extraction speed 4.4 X
Track quality 99.9 %
Test CRC 14514250
Copy CRC 14514250
Track not present in AccurateRip database
Copy OK

Track 7

Filename C:\EAC\Pop Will Eat Itself - Def Comms 86-18 (2018) [FLAC]\Disc 2\07 - Nightmare at 20,000 Feet.wav

Pre-gap length 0:00:01.66

Peak level 99.3 %
Extraction speed 4.2 X
Track quality 99.9 %
Test CRC D7A0CDE0
Copy CRC D7A0CDE0
Track not present in AccurateRip database
Copy OK

Track 8

Filename C:\EAC\Pop Will Eat Itself - Def Comms 86-18 (2018) [FLAC]\Disc 2\08 - Psychosexual.wav

Pre-gap length 0:00:02.88

Peak level 99.3 %
Extraction speed 4.9 X
Track quality 100.0 %
Test CRC DCDBBD9B
Copy CRC DCDBBD9B
Track not present in AccurateRip database
Copy OK

Track 9

Filename C:\EAC\Pop Will Eat Itself - Def Comms 86-18 (2018) [FLAC]\Disc 2\09 - Very Metal Noise Pollution.wav

Pre-gap length 0:00:01.29

Peak level 99.3 %
Extraction speed 4.3 X
Track quality 100.0 %
Test CRC 06DB6365
Copy CRC 06DB6365
Track not present in AccurateRip database
Copy OK

Track 10

Filename C:\EAC\Pop Will Eat Itself - Def Comms 86-18 (2018) [FLAC]\Disc 2\10 - Get The Girl, Kill The Baddies (Sherwood 7”).wav

Pre-gap length 0:00:02.45

Peak level 99.3 %
Extraction speed 5.8 X
Track quality 100.0 %
Test CRC 4A20EFF8
Copy CRC 4A20EFF8
Track not present in AccurateRip database
Copy OK

Track 11

Filename C:\EAC\Pop Will Eat Itself - Def Comms 86-18 (2018) [FLAC]\Disc 2\11 - Good From Far, Far From Good.wav

Pre-gap length 0:00:01.97

Peak level 99.3 %
Extraction speed 5.9 X
Track quality 100.0 %
Test CRC F296BC02
Copy CRC F296BC02
Track not present in AccurateRip database
Copy OK

Track 12

Filename C:\EAC\Pop Will Eat Itself - Def Comms 86-18 (2018) [FLAC]\Disc 2\12 - Karmadrome (7” Mix).wav

Pre-gap length 0:00:02.34

Peak level 99.3 %
Extraction speed 6.0 X
Track quality 100.0 %
Test CRC 7165E50A
Copy CRC 7165E50A
Track not present in AccurateRip database
Copy OK

Track 13

Filename C:\EAC\Pop Will Eat Itself - Def Comms 86-18 (2018) [FLAC]\Disc 2\13 - Mother.wav

Pre-gap length 0:00:01.57

Peak level 99.3 %
Extraction speed 6.3 X
Track quality 100.0 %
Test CRC 516BD9C2
Copy CRC 516BD9C2
Track not present in AccurateRip database
Copy OK

Track 14

Filename C:\EAC\Pop Will Eat Itself - Def Comms 86-18 (2018) [FLAC]\Disc 2\14 - Bulletproof! (Adrian Sherwood Remix).wav

Pre-gap length 0:00:01.81

Peak level 99.3 %
Extraction speed 6.2 X
Track quality 100.0 %
Test CRC 1291FA52
Copy CRC 1291FA52
Track not present in AccurateRip database
Copy OK

Track 15

Filename C:\EAC\Pop Will Eat Itself - Def Comms 86-18 (2018) [FLAC]\Disc 2\15 - Eat Me Drink Me Love Me Kill Me (7” Version).wav

Pre-gap length 0:00:01.06

Peak level 99.3 %
Extraction speed 6.2 X
Track quality 100.0 %
Test CRC 3CF3C148
Copy CRC 3CF3C148
Track not present in AccurateRip database
Copy OK

Track 16

Filename C:\EAC\Pop Will Eat Itself - Def Comms 86-18 (2018) [FLAC]\Disc 2\16 - Pretty Pretty.wav

Pre-gap length 0:00:00.68

Peak level 99.3 %
Extraction speed 6.7 X
Track quality 100.0 %
Test CRC 161955F1
Copy CRC 161955F1
Track not present in AccurateRip database
Copy OK

Track 17

Filename C:\EAC\Pop Will Eat Itself - Def Comms 86-18 (2018) [FLAC]\Disc 2\17 - Rockahula Baby.wav

Pre-gap length 0:00:01.68

Peak level 92.7 %
Extraction speed 6.8 X
Track quality 100.0 %
Test CRC BB0B2D37
Copy CRC BB0B2D37
Track not present in AccurateRip database
Copy OK

Track 18

Filename C:\EAC\Pop Will Eat Itself - Def Comms 86-18 (2018) [FLAC]\Disc 2\18 - Urban Futuristic.wav

Peak level 99.3 %
Extraction speed 7.1 X
Track quality 100.0 %
Test CRC 1EABF82B
Copy CRC 1EABF82B
Track not present in AccurateRip database
Copy OK


None of the tracks are present in the AccurateRip database

No errors occurred

End of status report

–– CUETools DB Plugin V2.1.6

[CTDB TOCID: 0bTNHd0TiRCTcGJHdovC7QbAyaE-] found
Submit result: 0bTNHd0TiRCTcGJHdovC7QbAyaE- has been confirmed
Track | CTDB Status
1 | (2/2) Accurately ripped
2 | (2/2) Accurately ripped
3 | (2/2) Accurately ripped
4 | (2/2) Accurately ripped
5 | (2/2) Accurately ripped
6 | (2/2) Accurately ripped
7 | (2/2) Accurately ripped
8 | (2/2) Accurately ripped
9 | (2/2) Accurately ripped
10 | (2/2) Accurately ripped
11 | (2/2) Accurately ripped
12 | (2/2) Accurately ripped
13 | (2/2) Accurately ripped
14 | (2/2) Accurately ripped
15 | (1/2) Accurately ripped, or (1/2) differs in 3 samples @01:05:59
16 | (2/2) Accurately ripped
17 | (2/2) Accurately ripped
18 | (2/2) Accurately ripped


==== Log checksum 01D2DC4FAE3598BCD6DA391C6835AB48A5B0F1CD959D9C8D09329DE2029B7D34 ====

Exact Audio Copy V1.3 from 2. September 2016

EAC extraction logfile from 27. September 2018, 21:44

Pop Will Eat Itself / Def Comms 86 - 18

Used drive : ATAPI iHAS224 B Adapter: 1 ID: 0

Read mode : Secure
Utilize accurate stream : Yes
Defeat audio cache : Yes
Make use of C2 pointers : No

Read offset correction : 6
Overread into Lead-In and Lead-Out : No
Fill up missing offset samples with silence : Yes
Delete leading and trailing silent blocks : No
Null samples used in CRC calculations : Yes
Used interface : Native Win32 interface for Win NT & 2000
Gap handling : Appended to previous track

Used output format : User Defined Encoder
Selected bitrate : 1024 kBit/s
Quality : High
Add ID3 tag : No
Command line compressor : C:\Program Files (x86)\Exact Audio Copy\Flac\flac.exe
Additional command line options : -8 -e -p -V -T "ARTIST=%artist%" -T "TITLE=%title%" -T "ALBUM=%albumtitle%" -T "DATE=%year%" -T "TRACKNUMBER=%tracknr%" -T "GENRE=%genre%" -T "PERFORMER=%albuminterpret%" -T "COMPOSER=%composer%" %haslyrics%–tag-from-file=LYRICS="%lyricsfile%"%haslyrics% -T "ALBUMARTIST=%albumartist%" -T "DISCNUMBER=%cdnumber%" -T "TOTALDISCS=%totalcds%" -T "TOTALTRACKS=%numtracks%" -T "COMMENT=%comment%" %source% -o %dest%


TOC of the extracted CD

Track | Start | Length | Start sector | End sector
––––––––––––––––––––––––––––-
1 | 0:00.00 | 4:04.27 | 0 | 18326
2 | 4:04.27 | 3:35.21 | 18327 | 34472
3 | 7:39.48 | 3:58.63 | 34473 | 52385
4 | 11:38.36 | 3:26.38 | 52386 | 67873
5 | 15:04.74 | 4:06.68 | 67874 | 86391
6 | 19:11.67 | 4:16.27 | 86392 | 105618
7 | 23:28.19 | 5:28.02 | 105619 | 130220
8 | 28:56.21 | 3:20.13 | 130221 | 145233
9 | 32:16.34 | 2:39.72 | 145234 | 157230
10 | 34:56.31 | 3:53.41 | 157231 | 174746
11 | 38:49.72 | 3:55.49 | 174747 | 192420
12 | 42:45.46 | 4:08.45 | 192421 | 211065
13 | 46:54.16 | 3:40.12 | 211066 | 227577
14 | 50:34.28 | 4:41.01 | 227578 | 248653
15 | 55:15.29 | 3:13.52 | 248654 | 263180
16 | 58:29.06 | 3:28.22 | 263181 | 278802
17 | 61:57.28 | 4:20.61 | 278803 | 298363
18 | 66:18.14 | 5:01.33 | 298364 | 320971


Track 1

Filename C:\EAC\Pop Will Eat Itself - Def Comms 86-18 (2018) [FLAC]\Disc 3\01 - Ich Bin Ein Auslander (7” Mix).wav

Pre-gap length 0:00:02.00

Peak level 99.3 %
Extraction speed 2.9 X
Track quality 99.9 %
Test CRC 0B6F2D15
Copy CRC 0B6F2D15
Track not present in AccurateRip database
Copy OK

Track 2

Filename C:\EAC\Pop Will Eat Itself - Def Comms 86-18 (2018) [FLAC]\Disc 3\02 - RSVP (7” Mix).wav

Pre-gap length 0:00:00.76

Peak level 99.3 %
Extraction speed 3.8 X
Track quality 100.0 %
Test CRC ACD68668
Copy CRC ACD68668
Track not present in AccurateRip database
Copy OK

Track 3

Filename C:\EAC\Pop Will Eat Itself - Def Comms 86-18 (2018) [FLAC]\Disc 3\03 - Cape Connection (Exclusive Version).wav

Pre-gap length 0:00:00.28

Peak level 99.3 %
Extraction speed 4.1 X
Track quality 100.0 %
Test CRC 30A40336
Copy CRC 30A40336
Track not present in AccurateRip database
Copy OK

Track 4

Filename C:\EAC\Pop Will Eat Itself - Def Comms 86-18 (2018) [FLAC]\Disc 3\04 - Kick to Kill.wav

Pre-gap length 0:00:01.57

Peak level 99.3 %
Extraction speed 3.3 X
Track quality 99.9 %
Test CRC 544D7C8C
Copy CRC 544D7C8C
Track not present in AccurateRip database
Copy OK

Track 5

Filename C:\EAC\Pop Will Eat Itself - Def Comms 86-18 (2018) [FLAC]\Disc 3\05 - Familus Horribilus (7” Mix).wav

Pre-gap length 0:00:01.40

Peak level 99.3 %
Extraction speed 4.6 X
Track quality 100.0 %
Test CRC 108F4930
Copy CRC 108F4930
Track not present in AccurateRip database
Copy OK

Track 6

Filename C:\EAC\Pop Will Eat Itself - Def Comms 86-18 (2018) [FLAC]\Disc 3\06 - Everything’s Cool.wav

Pre-gap length 0:00:01.01

Peak level 96.1 %
Extraction speed 5.0 X
Track quality 100.0 %
Test CRC 6F25F13B
Copy CRC 6F25F13B
Track not present in AccurateRip database
Copy OK

Track 7

Filename C:\EAC\Pop Will Eat Itself - Def Comms 86-18 (2018) [FLAC]\Disc 3\07 - Games Without Frontiers.wav

Pre-gap length 0:00:00.89

Peak level 99.3 %
Extraction speed 4.5 X
Track quality 99.9 %
Test CRC EE09B9B8
Copy CRC EE09B9B8
Track not present in AccurateRip database
Copy OK

Track 8

Filename C:\EAC\Pop Will Eat Itself - Def Comms 86-18 (2018) [FLAC]\Disc 3\08 - No Contest.wav

Pre-gap length 0:00:02.04

Peak level 99.3 %
Extraction speed 4.0 X
Track quality 99.9 %
Test CRC 6CF3EFAA
Copy CRC 6CF3EFAA
Track not present in AccurateRip database
Copy OK

Track 9

Filename C:\EAC\Pop Will Eat Itself - Def Comms 86-18 (2018) [FLAC]\Disc 3\09 - Talent + Attitude = $.wav

Pre-gap length 0:00:01.33

Peak level 93.4 %
Extraction speed 5.2 X
Track quality 100.0 %
Test CRC C05A4A8B
Copy CRC C05A4A8B
Track not present in AccurateRip database
Copy OK

Track 10

Filename C:\EAC\Pop Will Eat Itself - Def Comms 86-18 (2018) [FLAC]\Disc 3\10 - 100% Is xxIt.wav

Pre-gap length 0:00:01.32

Peak level 99.3 %
Extraction speed 5.7 X
Track quality 100.0 %
Test CRC 6B17B470
Copy CRC 6B17B470
Track not present in AccurateRip database
Copy OK

Track 11

Filename C:\EAC\Pop Will Eat Itself - Def Comms 86-18 (2018) [FLAC]\Disc 3\11 - The Demon.wav

Pre-gap length 0:00:01.81

Peak level 86.7 %
Extraction speed 5.9 X
Track quality 100.0 %
Test CRC E16E4E30
Copy CRC E16E4E30
Track not present in AccurateRip database
Copy OK

Track 12

Filename C:\EAC\Pop Will Eat Itself - Def Comms 86-18 (2018) [FLAC]\Disc 3\12 - Axe of Men 2010 (Crabbi Remix).wav

Pre-gap length 0:00:01.74

Peak level 93.1 %
Extraction speed 6.1 X
Track quality 100.0 %
Test CRC AF1496A0
Copy CRC AF1496A0
Track not present in AccurateRip database
Copy OK

Track 13

Filename C:\EAC\Pop Will Eat Itself - Def Comms 86-18 (2018) [FLAC]\Disc 3\13 - Chaos and Mayhem.wav

Pre-gap length 0:00:01.72

Peak level 95.5 %
Extraction speed 6.2 X
Track quality 100.0 %
Test CRC DA711C07
Copy CRC DA711C07
Track not present in AccurateRip database
Copy OK

Track 14

Filename C:\EAC\Pop Will Eat Itself - Def Comms 86-18 (2018) [FLAC]\Disc 3\14 - Equal Zero.wav

Pre-gap length 0:00:01.94

Peak level 99.3 %
Extraction speed 6.6 X
Track quality 100.0 %
Test CRC 01FE72A1
Copy CRC 01FE72A1
Track not present in AccurateRip database
Copy OK

Track 15

Filename C:\EAC\Pop Will Eat Itself - Def Comms 86-18 (2018) [FLAC]\Disc 3\15 - Disguise.wav

Pre-gap length 0:00:02.22

Peak level 99.3 %
Extraction speed 6.5 X
Track quality 100.0 %
Test CRC BE32CE47
Copy CRC BE32CE47
Track not present in AccurateRip database
Copy OK

Track 16

Filename C:\EAC\Pop Will Eat Itself - Def Comms 86-18 (2018) [FLAC]\Disc 3\16 - Watch The Bitch Blow.wav

Pre-gap length 0:00:01.48

Peak level 99.3 %
Extraction speed 6.6 X
Track quality 100.0 %
Test CRC 23C298C1
Copy CRC 23C298C1
Track not present in AccurateRip database
Copy OK

Track 17

Filename C:\EAC\Pop Will Eat Itself - Def Comms 86-18 (2018) [FLAC]\Disc 3\17 - Reclaim the Game (Original Version- feat. B Negão).wav

Pre-gap length 0:00:01.73

Peak level 98.2 %
Extraction speed 7.0 X
Track quality 100.0 %
Test CRC 241B8402
Copy CRC 241B8402
Track not present in AccurateRip database
Copy OK

Track 18

Filename C:\EAC\Pop Will Eat Itself - Def Comms 86-18 (2018) [FLAC]\Disc 3\18 - 21st Century English Civil War.wav

Pre-gap length 0:00:01.84

Peak level 95.5 %
Extraction speed 6.1 X
Track quality 99.9 %
Test CRC 9A502E9A
Copy CRC 9A502E9A
Track not present in AccurateRip database
Copy OK


None of the tracks are present in the AccurateRip database

No errors occurred

End of status report

–– CUETools DB Plugin V2.1.6

[CTDB TOCID: 9y_86jzZo.WR9oFSYUIEpN7Yc8A-] found
Submit result: 9y_86jzZo.WR9oFSYUIEpN7Yc8A- has been confirmed
Track | CTDB Status
1 | (1/1) Accurately ripped
2 | (1/1) Accurately ripped
3 | (1/1) Accurately ripped
4 | (1/1) Accurately ripped
5 | (1/1) Accurately ripped
6 | (1/1) Accurately ripped
7 | (1/1) Accurately ripped
8 | (1/1) Accurately ripped
9 | (1/1) Accurately ripped
10 | (1/1) Accurately ripped
11 | (1/1) Accurately ripped
12 | (1/1) Accurately ripped
13 | (1/1) Accurately ripped
14 | (1/1) Accurately ripped
15 | (1/1) Accurately ripped
16 | (1/1) Accurately ripped
17 | (1/1) Accurately ripped
18 | (1/1) Accurately ripped


==== Log checksum 72AF49C6A58837A619050A01E6132916E0A7F39848088D147B2B6B8B0694F2C6 ====

Exact Audio Copy V1.3 from 2. September 2016

EAC extraction logfile from 27. September 2018, 22:48

Pop Will Eat Itself / Def Comms 86 - 18

Used drive : ATAPI iHAS224 B Adapter: 1 ID: 0

Read mode : Secure
Utilize accurate stream : Yes
Defeat audio cache : Yes
Make use of C2 pointers : No

Read offset correction : 6
Overread into Lead-In and Lead-Out : No
Fill up missing offset samples with silence : Yes
Delete leading and trailing silent blocks : No
Null samples used in CRC calculations : Yes
Used interface : Native Win32 interface for Win NT & 2000
Gap handling : Appended to previous track

Used output format : User Defined Encoder
Selected bitrate : 1024 kBit/s
Quality : High
Add ID3 tag : No
Command line compressor : C:\Program Files (x86)\Exact Audio Copy\Flac\flac.exe
Additional command line options : -8 -e -p -V -T "ARTIST=%artist%" -T "TITLE=%title%" -T "ALBUM=%albumtitle%" -T "DATE=%year%" -T "TRACKNUMBER=%tracknr%" -T "GENRE=%genre%" -T "PERFORMER=%albuminterpret%" -T "COMPOSER=%composer%" %haslyrics%–tag-from-file=LYRICS="%lyricsfile%"%haslyrics% -T "ALBUMARTIST=%albumartist%" -T "DISCNUMBER=%cdnumber%" -T "TOTALDISCS=%totalcds%" -T "TOTALTRACKS=%numtracks%" -T "COMMENT=%comment%" %source% -o %dest%


TOC of the extracted CD

Track | Start | Length | Start sector | End sector
––––––––––––––––––––––––––––-
1 | 0:00.00 | 4:43.63 | 0 | 21287
2 | 4:43.63 | 5:54.69 | 21288 | 47906
3 | 10:38.57 | 5:43.60 | 47907 | 73691
4 | 16:22.42 | 2:41.36 | 73692 | 85802
5 | 19:04.03 | 5:06.50 | 85803 | 108802
6 | 24:10.53 | 7:16.71 | 108803 | 141573
7 | 31:27.49 | 3:35.08 | 141574 | 157706
8 | 35:02.57 | 5:13.50 | 157707 | 181231
9 | 40:16.32 | 5:57.47 | 181232 | 208053
10 | 46:14.04 | 7:15.57 | 208054 | 240735
11 | 53:29.61 | 4:14.55 | 240736 | 259840
12 | 57:44.41 | 5:02.02 | 259841 | 282492
13 | 62:46.43 | 2:53.18 | 282493 | 295485
14 | 65:39.61 | 3:38.40 | 295486 | 311875
15 | 69:18.26 | 4:29.47 | 311876 | 332097


Track 1

Filename C:\EAC\Pop Will Eat Itself - Def Comms 86-18 (2018) [FLAC]\Disc 4\01 - There Is No Love Between Us Anymore (Specially Extended Dance Mix).wav

Pre-gap length 0:00:02.00

Peak level 99.3 %
Extraction speed 3.1 X
Track quality 99.9 %
Test CRC 651DBB05
Copy CRC 651DBB05
Track not present in AccurateRip database
Copy OK

Track 2

Filename C:\EAC\Pop Will Eat Itself - Def Comms 86-18 (2018) [FLAC]\Disc 4\02 - Def Con One (Doomsday Power Mix).wav

Pre-gap length 0:00:02.44

Peak level 99.3 %
Extraction speed 3.7 X
Track quality 99.9 %
Test CRC EDE7F0CA
Copy CRC EDE7F0CA
Track not present in AccurateRip database
Copy OK

Track 3

Filename C:\EAC\Pop Will Eat Itself - Def Comms 86-18 (2018) [FLAC]\Disc 4\03 - Wise Up Sucker (12'' Youth Mix).wav

Pre-gap length 0:00:01.76

Peak level 99.3 %
Extraction speed 4.7 X
Track quality 100.0 %
Test CRC CC96EA5E
Copy CRC CC96EA5E
Track not present in AccurateRip database
Copy OK

Track 4

Filename C:\EAC\Pop Will Eat Itself - Def Comms 86-18 (2018) [FLAC]\Disc 4\04 - Very Metal (Feb '89 Demo).wav

Pre-gap length 0:00:02.00

Peak level 99.3 %
Extraction speed 4.5 X
Track quality 100.0 %
Test CRC C16282C2
Copy CRC C16282C2
Track not present in AccurateRip database
Copy OK

Track 5

Filename C:\EAC\Pop Will Eat Itself - Def Comms 86-18 (2018) [FLAC]\Disc 4\05 - Pwei-Zation (12'' Mix).wav

Pre-gap length 0:00:02.13

Peak level 99.3 %
Extraction speed 5.2 X
Track quality 100.0 %
Test CRC 3559B952
Copy CRC 3559B952
Track not present in AccurateRip database
Copy OK

Track 6

Filename C:\EAC\Pop Will Eat Itself - Def Comms 86-18 (2018) [FLAC]\Disc 4\06 - Dance Of The Mad 'n Bad (12'' Mix).wav

Pre-gap length 0:00:02.21

Peak level 99.3 %
Extraction speed 5.7 X
Track quality 100.0 %
Test CRC 90A4EC50
Copy CRC 90A4EC50
Track not present in AccurateRip database
Copy OK

Track 7

Filename C:\EAC\Pop Will Eat Itself - Def Comms 86-18 (2018) [FLAC]\Disc 4\07 - 92°F (Boilerhouse 'The Birth' Mix).wav

Pre-gap length 0:00:02.37

Peak level 99.3 %
Extraction speed 4.4 X
Track quality 99.9 %
Test CRC B7082E9F
Copy CRC B7082E9F
Track not present in AccurateRip database
Copy OK

Track 8

Filename C:\EAC\Pop Will Eat Itself - Def Comms 86-18 (2018) [FLAC]\Disc 4\08 - Rock Of Ages.wav

Pre-gap length 0:00:01.86

Peak level 99.3 %
Extraction speed 6.0 X
Track quality 100.0 %
Test CRC 1655513D
Copy CRC 1655513D
Track not present in AccurateRip database
Copy OK

Track 9

Filename C:\EAC\Pop Will Eat Itself - Def Comms 86-18 (2018) [FLAC]\Disc 4\09 - Eat Me Drink Me Dub Me Kill Me.wav

Pre-gap length 0:00:02.00

Peak level 99.3 %
Extraction speed 6.5 X
Track quality 100.0 %
Test CRC 71EA5378
Copy CRC 71EA5378
Track not present in AccurateRip database
Copy OK

Track 10

Filename C:\EAC\Pop Will Eat Itself - Def Comms 86-18 (2018) [FLAC]\Disc 4\10 - Get The Girl (Sherwood 12'' Dub).wav

Pre-gap length 0:00:01.89

Peak level 99.3 %
Extraction speed 6.9 X
Track quality 100.0 %
Test CRC 734C57D2
Copy CRC 734C57D2
Track not present in AccurateRip database
Copy OK

Track 11

Filename C:\EAC\Pop Will Eat Itself - Def Comms 86-18 (2018) [FLAC]\Disc 4\11 - Ich Bin Ein Auslander (Die Krupps Mix).wav

Pre-gap length 0:00:02.00

Peak level 70.8 %
Extraction speed 6.7 X
Track quality 100.0 %
Test CRC 97B1E9AE
Copy CRC 97B1E9AE
Track not present in AccurateRip database
Copy OK

Track 12

Filename C:\EAC\Pop Will Eat Itself - Def Comms 86-18 (2018) [FLAC]\Disc 4\12 - Kick2kill (Jim Foetus Seersucker Mix).wav

Pre-gap length 0:00:01.72

Peak level 99.3 %
Extraction speed 7.1 X
Track quality 100.0 %
Test CRC 054B02C2
Copy CRC 054B02C2
Track not present in AccurateRip database
Copy OK

Track 13

Filename C:\EAC\Pop Will Eat Itself - Def Comms 86-18 (2018) [FLAC]\Disc 4\13 - Fatman (Session Version).wav

Pre-gap length 0:00:01.69

Peak level 99.3 %
Extraction speed 6.6 X
Track quality 100.0 %
Test CRC 3B11A8D6
Copy CRC 3B11A8D6
Track not present in AccurateRip database
Copy OK

Track 14

Filename C:\EAC\Pop Will Eat Itself - Def Comms 86-18 (2018) [FLAC]\Disc 4\14 - Oldskool Cool (Ravey Mix).wav

Pre-gap length 0:00:01.77

Peak level 99.3 %
Extraction speed 7.1 X
Track quality 100.0 %
Test CRC DF708F4E
Copy CRC DF708F4E
Track not present in AccurateRip database
Copy OK

Track 15

Filename C:\EAC\Pop Will Eat Itself - Def Comms 86-18 (2018) [FLAC]\Disc 4\15 - Eyes Wide Open (Demo).wav

Pre-gap length 0:00:02.22

Peak level 99.3 %
Extraction speed 7.4 X
Track quality 100.0 %
Test CRC 9D26D0EB
Copy CRC 9D26D0EB
Track not present in AccurateRip database
Copy OK


None of the tracks are present in the AccurateRip database

No errors occurred

End of status report

–– CUETools DB Plugin V2.1.6

[CTDB TOCID: 3ePfZcdfXHf9sur04HDOyN6nHaI-] found
Submit result: 3ePfZcdfXHf9sur04HDOyN6nHaI- has been confirmed
Track | CTDB Status
1 | (2/2) Accurately ripped
2 | (2/2) Accurately ripped
3 | (2/2) Accurately ripped
4 | (2/2) Accurately ripped
5 | (2/2) Accurately ripped
6 | (2/2) Accurately ripped
7 | (2/2) Accurately ripped
8 | (2/2) Accurately ripped
9 | (2/2) Accurately ripped
10 | (2/2) Accurately ripped
11 | (2/2) Accurately ripped
12 | (2/2) Accurately ripped
13 | (2/2) Accurately ripped
14 | (2/2) Accurately ripped
15 | (2/2) Accurately ripped


==== Log checksum A59AE680493B5F7783A982F43932847E29AFBD559DC53DFEFA740FA77CBBF393 ====

Thanks to the Original ripper riptup !