Subcategories

Porcupine Tree - Voyage 34: The Complete Trip (2000/2017) [2016 Steven Wilson Remaster]

Posted By: delpotro
Porcupine Tree - Voyage 34: The Complete Trip (2000/2017) [2016 Steven Wilson Remaster]

Porcupine Tree - Voyage 34: The Complete Trip (2000/2017) [2016 Steven Wilson Remaster]
EAC Rip | FLAC (tracks+log+.cue) | Scans included | 01:10:00 | 383 Mb
Electronic, Psychedelic, Ambient | Label: Kscope Records

2017 edition in a gatefold mini LP sleeve, featuring the new 2016 master with more sympathetic EQ and minimal dynamic compression, as used for the Delerium Years vinyl box set. It includes the original full length vinyl mix of Phase IV.

Voyage 34: The Complete Trip is a compilation album by British progressive rock band Porcupine Tree. The individual tracks were recorded in 1992 or 1993, while the album itself was compiled and released in 2000, and then reissued again in 2004.

The album originates from a single track, titled "Voyage 34", which was to be part of the Porcupine Tree's second studio album, Up the Downstair. Originally a 30-minute track intended to be the second disc of a double album, Wilson eventually decided to release "Voyage 34" independently of the rest of the album. Instead, it was released in two parts, as singles, as "Voyage 34 (Phase 1)" and "Voyage 34 (Phase 2)" in 1992. In 1993, Voyage 34: Remixes was released, containing two remixes of the originals. "Voyage 34 (Phase 3)" was a remix by the British electronic music group Astralasia, while "Voyage 34 (Phase 4)" was a remix by Wilson himself, along with future band member Richard Barbieri. A voice sample of Dead Can Dance's song "As the Bell Rings the Maypole Spins" is repeated throughout all four tracks.

Voyage 34: The Complete Trip compiles all four "phases" onto one album.

Despite being mostly instrumental, Voyage 34 can be considered a concept album, where the LSD trip of a young man called Brian is told with spoken words. Musically it is a fusion of progressive rock, psychedelic rock and trance music.

During a 2002 interview before the release of In Absentia, Steven Wilson said the following in regards to the release of Voyage 34 after being asked why the band released a 30-minute single:

"It was an anti-single. It was a thirty minute single about drugs and it had no vocals in it. I thought that no one is going to play this. But it charted anyway. It was the ultimate 'fuck you.' We have released four minute singles since then. But for Porcupine Tree to release a single is like an oxymoron. It's very difficult to take out a four minute chunk from an album and say 'Here we are. This totally encapsulates everything Porcupine Tree are about.' It's never been satisfactory to me to release a single. If you know the group, you know that from one minute we go from extreme metal riffing to ambient texture, the next minute we'll have a pop hook, the next minute we'll have some avant garde sample. All of these things are part of the album. How do you take a chunk of that? To me it's totally unrepresentative."

Wilson said of Voyage 34, in reflection, in 2012:

The whole point about "Voyage 34" was an exercise in genre. In that sense it stands apart from the rest of the catalogue…back in the early Nineties, there was an explosion in ambient music, a fusion of electronic music and techno music with the philosophy of people like Brian Eno and Tangerine Dream. I thought there was an interesting opportunity to do something that would bring progressive rock and psychedelia into that mixture. I wouldn’t say "Voyage 34" was a technical exercise, that makes it sound like a science project, but it was a one-off experiment in a particular genre in which I knew I wouldn’t be staying for very long. I was given a tape of a guy having a bad trip in the Sixties. It was an anti-LSD propaganda album and it was perfect to form a narrative around which I could form this long, hypnotic, trippy piece of music. And that was "Voyage 34". Even at the time, I think that sort of music was already passing. Music that is too attached to a trend very soon starts to sound very dated. I was always interested in existing outside the bubble of whatever was hip, and that kind of music was very briefly hip. "Voyage 34" sits inside that bubble. I’m still very proud of it. It was a unique piece of music, but of all the catalogue, it’s one of the pieces which relates most closely to the era that it was created in.
Tracklist:
1. Phase I
2. Phase II
3. Phase III - Astralasia Dreamstate
4. Phase VI - A New Civilization

Exact Audio Copy V1.3 from 2. September 2016

EAC extraction logfile from 31. March 2017, 22:55

Porcupine Tree / Voyage 34

Used drive : HL-DT-STBD-RE WH16NS40 Adapter: 1 ID: 0

Read mode : Secure
Utilize accurate stream : Yes
Defeat audio cache : Yes
Make use of C2 pointers : No

Read offset correction : 6
Overread into Lead-In and Lead-Out : No
Fill up missing offset samples with silence : Yes
Delete leading and trailing silent blocks : No
Null samples used in CRC calculations : Yes
Used interface : Native Win32 interface for Win NT & 2000
Gap handling : Appended to previous track

Used output format : User Defined Encoder
Selected bitrate : 1024 kBit/s
Quality : High
Add ID3 tag : No
Command line compressor : C:\My Downloads\FLAC Codec for EAC\flac-1.3.2-win\win64\flac.exe
Additional command line options : -8 -e -p -V -T "ARTIST=%artist%" -T "TITLE=%title%" -T "ALBUM=%albumtitle%" -T "DATE=%year%" -T "TRACKNUMBER=%tracknr%" -T "GENRE=%genre%" -T "PERFORMER=%albuminterpret%" -T "COMPOSER=%composer%" %haslyrics%–tag-from-file=LYRICS="%lyricsfile%"%haslyrics% -T "ALBUMARTIST=%albumartist%" -T "DISCNUMBER=%cdnumber%" -T "TOTALDISCS=%totalcds%" -T "TOTALTRACKS=%numtracks%" -T "COMMENT=%comment%" %source% -o %dest%


TOC of the extracted CD

Track | Start | Length | Start sector | End sector
––––––––––––––––––––––––––––-
1 | 0:00.00 | 13:01.49 | 0 | 58623
2 | 13:01.49 | 17:35.58 | 58624 | 137806
3 | 30:37.32 | 19:35.51 | 137807 | 225982
4 | 50:13.08 | 19:47.10 | 225983 | 315017


Track 1

Filename D:\Torrents\Porcupine Tree - Voyage 34 (2017) [FLAC]\01 - Phase I.wav

Pre-gap length 0:00:02.00

Peak level 98.8 %
Extraction speed 4.0 X
Track quality 100.0 %
Test CRC 03F2DEC4
Copy CRC 03F2DEC4
Track not present in AccurateRip database
Copy OK

Track 2

Filename D:\Torrents\Porcupine Tree - Voyage 34 (2017) [FLAC]\02 - Phase II.wav

Pre-gap length 0:00:04.98

Peak level 98.8 %
Extraction speed 1.6 X
Track quality 99.9 %
Test CRC DBED403F
Copy CRC DBED403F
Track not present in AccurateRip database
Copy OK

Track 3

Filename D:\Torrents\Porcupine Tree - Voyage 34 (2017) [FLAC]\03 - Phase III - Astralasia Dreamstate.wav

Pre-gap length 0:00:04.98

Peak level 98.8 %
Extraction speed 2.1 X
Track quality 100.0 %
Test CRC 55BEF408
Copy CRC 55BEF408
Track not present in AccurateRip database
Copy OK

Track 4

Filename D:\Torrents\Porcupine Tree - Voyage 34 (2017) [FLAC]\04 - Phase IV - A New Civilization.wav

Pre-gap length 0:00:04.98

Peak level 98.4 %
Extraction speed 2.4 X
Track quality 100.0 %
Test CRC 001566ED
Copy CRC 001566ED
Track not present in AccurateRip database
Copy OK


None of the tracks are present in the AccurateRip database

No errors occurred

End of status report

–– CUETools DB Plugin V2.1.6

[CTDB TOCID: 26JfXgRN5G_LpgQ2GhFptq4v1Oc-] disk not present in database
Submit result: 26JfXgRN5G_LpgQ2GhFptq4v1Oc- has been uploaded


==== Log checksum FC5001A15C2FAB5E3547D05DAEB0E95EEC808DCD189199BFB45AF9BBB55257F7 ====



Porcupine Tree - Voyage 34: The Complete Trip (2000/2017) [2016 Steven Wilson Remaster]

Thanks to the Original ripper zoan2013 !