Subcategories

Prem Dhara – Flow of Love (2002)

Posted By: d'Avignon
Prem Dhara – Flow of Love (2002)

Prem Dhara – Flow of Love (2002)
World/Ethnic | FLAC lossless | cuesheets+log | covers+booklet | 70m52s | 385mb
Label: PAN Records | cat. no. PAN 2093


A user’s request, which was simple: “post as many PAN records as you can lay your hands on”.
Well then. I’ve done a random few already; here’s another one out of several hundreds. It’s a pleasant one.

Tracks:

01. Hey Suni Raah Guzar [0:10:50.36]
02. Kadam Chumo [0:09:55.80]
03. Kanhaija Ko Ham Sangh [0:09:52.92]
04. Man Hi Man Men [0:14:36.52]
05. Ekh Chaand Chehera [0:08:31.05]
06. Pajelia [0:17:04.21]

Performers:

Dhroeh Nankoe – vocals, harmonium
Santosh Kumar Mishra – sarangi
Nandkishor Muley – santur
Annada Prasanna Pattanaik – bansuri
Rafiuddin Sabri – tabla

Exact Audio Copy V1.0 beta 3 from 29. August 2011

EAC extraction logfile from 15. January 2013, 20:24

Prem Dhara / Flow of Love

Used drive : TSSTcorpCDDVDW SH-216AB Adapter: 1 ID: 0

Read mode : Secure
Utilize accurate stream : Yes
Defeat audio cache : Yes
Make use of C2 pointers : No

Read offset correction : 6
Overread into Lead-In and Lead-Out : No
Fill up missing offset samples with silence : Yes
Delete leading and trailing silent blocks : No
Null samples used in CRC calculations : Yes
Used interface : Native Win32 interface for Win NT & 2000
Gap handling : Appended to previous track

Used output format : User Defined Encoder
Selected bitrate : 768 kBit/s
Quality : High
Add ID3 tag : No
Command line compressor : C:\Program Files (x86)\Exact Audio Copy\FLAC\FLAC.EXE
Additional command line options : -6 -V -T "ARTIST=%artist%" -T "TITLE=%title%" -T "ALBUM=%albumtitle%" -T "DATE=%year%" -T "TRACKNUMBER=%tracknr%" -T "GENRE=%genre%" -T "COMMENT=%comment%" -T "BAND=%albuminterpret%" -T "ALBUMARTIST=%albuminterpret%" -T "COMPOSER=%composer%" %haslyrics%–tag-from-file=LYRICS="%lyricsfile%"%haslyrics% -T "DISCNUMBER=%cdnumber%" -T "TOTALDISCS=%totalcds%" -T "TOTALTRACKS=%numtracks%" %hascover%–picture="%coverfile%"%hascover% %source% -o %dest%


TOC of the extracted CD

Track | Start | Length | Start sector | End sector
––––––––––––––––––––––––––––-
1 | 0:00.00 | 10:50.27 | 0 | 48776
2 | 10:50.27 | 9:55.60 | 48777 | 93461
3 | 20:46.12 | 9:52.69 | 93462 | 137930
4 | 30:39.06 | 14:36.39 | 137931 | 203669
5 | 45:15.45 | 8:31.04 | 203670 | 241998
6 | 53:46.49 | 17:04.16 | 241999 | 318814


Track 1

Filename C:\Users\astarte\03. POST\Prem Dhara - Flow of Love\01. Hey Suni Raah Guzar.wav

Pre-gap length 0:00:02.00

Peak level 91.5 %
Extraction speed 4.9 X
Track quality 99.9 %
Copy CRC 4AA71F38
Accurately ripped (confidence 1) [6ECB3A4C] (AR v2)
Copy OK

Track 2

Filename C:\Users\astarte\03. POST\Prem Dhara - Flow of Love\02. Kadam Chumo.wav

Peak level 84.5 %
Extraction speed 6.3 X
Track quality 100.0 %
Copy CRC 22868652
Accurately ripped (confidence 1) [F11FC433] (AR v2)
Copy OK

Track 3

Filename C:\Users\astarte\03. POST\Prem Dhara - Flow of Love\03. Kanhaija Ko Ham Sangh.wav

Peak level 98.1 %
Extraction speed 6.5 X
Track quality 99.9 %
Copy CRC 41FBC6CF
Accurately ripped (confidence 1) [916DD85D] (AR v2)
Copy OK

Track 4

Filename C:\Users\astarte\03. POST\Prem Dhara - Flow of Love\04. Man Hi Man Men.wav

Peak level 80.2 %
Extraction speed 8.2 X
Track quality 100.0 %
Copy CRC 5697A77B
Accurately ripped (confidence 1) [BE72A9AB] (AR v2)
Copy OK

Track 5

Filename C:\Users\astarte\03. POST\Prem Dhara - Flow of Love\05. Ekh Chaand Chehera.wav

Peak level 83.6 %
Extraction speed 8.8 X
Track quality 100.0 %
Copy CRC 7ED39E16
Accurately ripped (confidence 1) [415A9296] (AR v2)
Copy OK

Track 6

Filename C:\Users\astarte\03. POST\Prem Dhara - Flow of Love\06. Pajelia.wav

Peak level 87.3 %
Extraction speed 9.2 X
Track quality 99.9 %
Copy CRC C315A2FE
Accurately ripped (confidence 1) [22F703E6] (AR v2)
Copy OK


All tracks accurately ripped

No errors occurred

End of status report

==== Log checksum 240F06D0ABF45ADBE6C85144665E08EB996E5F06D9037E11F9A09BFFB58FAF6F ====