Subcategories

Prince - LotusFlow3r

Posted By: jetset
Prince - LotusFlow3r

Prince - LotusFlow3r (2009)
EAC Rip | FLAC (Tracks)+CUE, LOG | 332 MB
Pop, Funk | Label: NPG records | Hotfile + Depositfiles + Filefactory


Tracklist:

01. From the Lotus… (2:47)
02. Boom (3:19)
03. Crimson and Clover (3:52)
04. 4Ever (3:47)
05. Colonized Mind (4:48)
06. Feel Good, Feel Better, Feel Wonderful (3:53)
07. Love Like Jazz (3:50)
08. 77 Beverly Park (3:04)
09. Wall of Berlin (4:17)
10. $ (3:57)
11. Dreamer (5:31)
12. …Back 2 the Lotus (5:35)

EAC extraction logfile from 31. March 2009, 22:35 for CD
Prince / Lotusflow3r
Used drive : BENQ DVD DD DW1620 Adapter: 3 ID: 0
Read mode : Secure with NO C2, accurate stream, disable cache
Read offset correction : 618
Overread into Lead-In and Lead-Out : No
Used output format : C:\Program Files\FLAC\flac.exe (User Defined Encoder)
128 kBit/s
Additional command line options : -f -o %d -V -8 -T "artist=%a" -T "title=%t" -T "album=%g" -T "date=%y" -T "tracknumber=%n" -T "genre=%m" %s
Other options :
Fill up missing offset samples with silence : Yes
Delete leading and trailing silent blocks : No
Installed external ASPI interface
Track 1
Filename E:\Music\Prince - Lotusflow3r (2009) [FLAC] {Target Exclusive 3 Disc Set}\Lotusflow3r\01 - From the Lotus….wav
Pre-gap length 0:00:02.00
Peak level 98.3 %
Track quality 100.0 %
Test CRC 8DE3DA7F
Copy CRC 8DE3DA7F
Copy OK
Track 2
Filename E:\Music\Prince - Lotusflow3r (2009) [FLAC] {Target Exclusive 3 Disc Set}\Lotusflow3r\02 - Boom.wav
Peak level 100.0 %
Track quality 100.0 %
Test CRC B475272E
Copy CRC B475272E
Copy OK
Track 3
Filename E:\Music\Prince - Lotusflow3r (2009) [FLAC] {Target Exclusive 3 Disc Set}\Lotusflow3r\03 - Crimson and Clover.wav
Peak level 100.0 %
Track quality 100.0 %
Test CRC 78F98C9F
Copy CRC 78F98C9F
Copy OK
Track 4
Filename E:\Music\Prince - Lotusflow3r (2009) [FLAC] {Target Exclusive 3 Disc Set}\Lotusflow3r\04 - 4Ever.wav
Peak level 97.8 %
Track quality 99.9 %
Test CRC B020FC37
Copy CRC B020FC37
Copy OK
Track 5
Filename E:\Music\Prince - Lotusflow3r (2009) [FLAC] {Target Exclusive 3 Disc Set}\Lotusflow3r\05 - Colonized Mind.wav
Peak level 99.7 %
Track quality 100.0 %
Test CRC 6CE62B0A
Copy CRC 6CE62B0A
Copy OK
Track 6
Filename E:\Music\Prince - Lotusflow3r (2009) [FLAC] {Target Exclusive 3 Disc Set}\Lotusflow3r\06 - Feel Good, Feel Better, Feel Wonderful.wav
Peak level 100.0 %
Track quality 100.0 %
Test CRC B30B16D7
Copy CRC B30B16D7
Copy OK
Track 7
Filename E:\Music\Prince - Lotusflow3r (2009) [FLAC] {Target Exclusive 3 Disc Set}\Lotusflow3r\07 - Love Like Jazz.wav
Peak level 98.1 %
Track quality 100.0 %
Test CRC AE0B51BA
Copy CRC AE0B51BA
Copy OK
Track 8
Filename E:\Music\Prince - Lotusflow3r (2009) [FLAC] {Target Exclusive 3 Disc Set}\Lotusflow3r\08 - 77 Beverly Park.wav
Peak level 95.5 %
Track quality 100.0 %
Test CRC DB8B685E
Copy CRC DB8B685E
Copy OK
Track 9
Filename E:\Music\Prince - Lotusflow3r (2009) [FLAC] {Target Exclusive 3 Disc Set}\Lotusflow3r\09 - Wall of Berlin.wav
Peak level 99.9 %
Track quality 100.0 %
Test CRC 6E2DC9FE
Copy CRC 6E2DC9FE
Copy OK
Track 10
Filename E:\Music\Prince - Lotusflow3r (2009) [FLAC] {Target Exclusive 3 Disc Set}\Lotusflow3r\10 - $.wav
Peak level 100.0 %
Track quality 100.0 %
Test CRC F17E72BB
Copy CRC F17E72BB
Copy OK
Track 11
Filename E:\Music\Prince - Lotusflow3r (2009) [FLAC] {Target Exclusive 3 Disc Set}\Lotusflow3r\11 - Dreamer.wav
Peak level 99.2 %
Track quality 99.9 %
Test CRC A0056494
Copy CRC A0056494
Copy OK
Track 12
Filename E:\Music\Prince - Lotusflow3r (2009) [FLAC] {Target Exclusive 3 Disc Set}\Lotusflow3r\12 - …Back 2 the Lotus.wav
Peak level 98.1 %
Track quality 100.0 %
Test CRC 351FA33C
Copy CRC 351FA33C
Copy OK
No errors occured
End of status report




Download FREE


NO Mirror Please!