Subcategories

Prince - MPLSound

Posted By: jetset
Prince - MPLSound

Prince - MPLSound (2009)
EAC Rip | FLAC (Tracks)+CUE, LOG | 320 MB
Pop, Funk | Label: NPG Records | Hotfile + Depositfiles + Filefactory


Tracklist:

01. (There'll Never Be) Another Like Me (6:02)
02. Chocolate Box (6:14)
03. Dance 4 Me (4:59)
04. U're Gonna C Me (4:36)
05. Here (5:15)
06. Valentina (3:59)
07. Better With Time (4:54)
08. Ol' Skool Company (7:30)
09. No More Candy 4 U (4:14)

EAC extraction logfile from 31. March 2009, 23:33 for CD
Prince / MPLSound

Used drive : BENQ DVD DD DW1620 Adapter: 3 ID: 0
Read mode : Secure with NO C2, accurate stream, disable cache
Read offset correction : 618
Overread into Lead-In and Lead-Out : No

Used output format : C:\Program Files\FLAC\flac.exe (User Defined Encoder)
128 kBit/s
Additional command line options : -f -o %d -V -8 -T "artist=%a" -T "title=%t" -T "album=%g" -T "date=%y" -T "tracknumber=%n" -T "genre=%m" %s

Other options :
Fill up missing offset samples with silence : Yes
Delete leading and trailing silent blocks : No
Installed external ASPI interface


Track 1
Filename E:\Music\Prince - Lotusflow3r (2009) [FLAC] {Target Exclusive 3 Disc Set}\MPLSound\01 - (There'll Never Be) Another Like Me.wav

Pre-gap length 0:00:02.00

Peak level 98.8 %
Track quality 100.0 %
Test CRC 8CD8D981
Copy CRC 8CD8D981
Copy OK

Track 2
Filename E:\Music\Prince - Lotusflow3r (2009) [FLAC] {Target Exclusive 3 Disc Set}\MPLSound\02 - Chocolate Box.wav

Peak level 98.8 %
Track quality 100.0 %
Test CRC 86CE5D2C
Copy CRC 86CE5D2C
Copy OK

Track 3
Filename E:\Music\Prince - Lotusflow3r (2009) [FLAC] {Target Exclusive 3 Disc Set}\MPLSound\03 - Dance 4 Me.wav

Peak level 98.8 %
Track quality 99.9 %
Test CRC 550C5936
Copy CRC 550C5936
Copy OK

Track 4
Filename E:\Music\Prince - Lotusflow3r (2009) [FLAC] {Target Exclusive 3 Disc Set}\MPLSound\04 - U're Gonna C Me.wav

Peak level 98.8 %
Track quality 100.0 %
Test CRC 057D10B9
Copy CRC 057D10B9
Copy OK

Track 5
Filename E:\Music\Prince - Lotusflow3r (2009) [FLAC] {Target Exclusive 3 Disc Set}\MPLSound\05 - Here.wav

Peak level 98.8 %
Track quality 100.0 %
Test CRC 151A832D
Copy CRC 151A832D
Copy OK

Track 6
Filename E:\Music\Prince - Lotusflow3r (2009) [FLAC] {Target Exclusive 3 Disc Set}\MPLSound\06 - Valentina.wav

Peak level 98.8 %
Track quality 99.9 %
Test CRC 20217F92
Copy CRC 20217F92
Copy OK

Track 7
Filename E:\Music\Prince - Lotusflow3r (2009) [FLAC] {Target Exclusive 3 Disc Set}\MPLSound\07 - Better With Time.wav

Peak level 98.8 %
Track quality 100.0 %
Test CRC 9E089AC5
Copy CRC 9E089AC5
Copy OK

Track 8
Filename E:\Music\Prince - Lotusflow3r (2009) [FLAC] {Target Exclusive 3 Disc Set}\MPLSound\08 - Ol' Skool Company.wav

Peak level 98.8 %
Track quality 100.0 %
Test CRC B1674390
Copy CRC B1674390
Copy OK

Track 9
Filename E:\Music\Prince - Lotusflow3r (2009) [FLAC] {Target Exclusive 3 Disc Set}\MPLSound\09 - No More Candy 4 U.wav

Peak level 98.8 %
Track quality 100.0 %
Test CRC 1E07301F
Copy CRC 1E07301F
Copy OK

No errors occured


End of status report




Download FREE


NO Mirror Please!