Subcategories

Progger - Scattering (2016)

Posted By: delpotro
Progger - Scattering (2016)

Progger - Scattering (2016)
EAC Rip | FLAC (tracks+log+.cue) - 317 Mb | MP3 CBR 320 kbps - 108 Mb | 00:47:04
Jazz Fusion, Jazz Rock | Label: Ropeadope Records

Scattering represents a number of exciting departures for Progger, including the incorporation of new personnel, production techniques, and a recording process that involved two cities 1,700 miles apart, Austin and Brooklyn. The band's regular personnel were joined by some of New York’s finest young musicians, including Nate Werth (percussion) and Justin Stanton (keyboards) of Snarky Puppy, to explore larger textures and a hugely diverse sound palette for the new music.
Tracklist:
1. Prelude
2. Transit
3. Exquisite
4. Big Trouble
5. Interlude
6. Traveler
7. Scattering
8. Endorphin
9. Postlude
10. Werewolf

Exact Audio Copy V1.0 beta 3 from 29. August 2011

EAC extraction logfile from 10. June 2016, 15:32

Progger / Scattering

Used drive : hp BD MLT UJ262 Adapter: 0 ID: 0

Read mode : Secure
Utilize accurate stream : Yes
Defeat audio cache : Yes
Make use of C2 pointers : No

Read offset correction : 103
Overread into Lead-In and Lead-Out : No
Fill up missing offset samples with silence : Yes
Delete leading and trailing silent blocks : No
Null samples used in CRC calculations : Yes
Used interface : Native Win32 interface for Win NT & 2000
Gap handling : Appended to previous track

Used output format : User Defined Encoder
Selected bitrate : 1024 kBit/s
Quality : High
Add ID3 tag : No
Command line compressor : C:\Program Files (x86)\Exact Audio Copy\Flac\flac.exe
Additional command line options : -8 -V -T "ARTIST=%artist%" -T "TITLE=%title%" -T "ALBUM=%albumtitle%" -T "DATE=%year%" -T "TRACKNUMBER=%tracknr%" -T "GENRE=%genre%" -T "PERFORMER=%albuminterpret%" -T "COMPOSER=%composer%" %haslyrics%–tag-from-file=LYRICS="%lyricsfile%"%haslyrics% -T "ALBUMARTIST=%albumartist%" -T "DISCNUMBER=%cdnumber%" -T "TOTALDISCS=%totalcds%" -T "TOTALTRACKS=%numtracks%" -T "COMMENT=%comment%" %source% -o %dest%


TOC of the extracted CD

Track | Start | Length | Start sector | End sector
––––––––––––––––––––––––––––-
1 | 0:00.00 | 0:54.62 | 0 | 4111
2 | 0:54.62 | 6:24.36 | 4112 | 32947
3 | 7:19.23 | 5:30.61 | 32948 | 57758
4 | 12:50.09 | 8:04.20 | 57759 | 94078
5 | 20:54.29 | 1:06.73 | 94079 | 99101
6 | 22:01.27 | 6:14.57 | 99102 | 127208
7 | 28:16.09 | 5:56.08 | 127209 | 153916
8 | 34:12.17 | 7:12.27 | 153917 | 186343
9 | 41:24.44 | 0:20.57 | 186344 | 187900
10 | 41:45.26 | 5:19.23 | 187901 | 211848


Track 1

Filename C:\Users\Julian\Music\Progger - Scattering (CD FLAC)\Progger - Scattering - 01 - Prelude.wav

Pre-gap length 0:00:02.00

Peak level 97.4 %
Extraction speed 1.7 X
Track quality 100.0 %
Test CRC 2A51F5C5
Copy CRC 2A51F5C5
Track not present in AccurateRip database
Copy OK

Track 2

Filename C:\Users\Julian\Music\Progger - Scattering (CD FLAC)\Progger - Scattering - 02 - Transit.wav

Pre-gap length 0:00:02.00

Peak level 100.0 %
Extraction speed 2.4 X
Track quality 99.9 %
Test CRC 54705752
Copy CRC 54705752
Track not present in AccurateRip database
Copy OK

Track 3

Filename C:\Users\Julian\Music\Progger - Scattering (CD FLAC)\Progger - Scattering - 03 - Exquisite.wav

Pre-gap length 0:00:02.00

Peak level 100.0 %
Extraction speed 3.2 X
Track quality 100.0 %
Test CRC C16D9353
Copy CRC C16D9353
Track not present in AccurateRip database
Copy OK

Track 4

Filename C:\Users\Julian\Music\Progger - Scattering (CD FLAC)\Progger - Scattering - 04 - Big Trouble.wav

Pre-gap length 0:00:02.00

Peak level 98.7 %
Extraction speed 3.7 X
Track quality 100.0 %
Test CRC 9FBC38AF
Copy CRC 9FBC38AF
Track not present in AccurateRip database
Copy OK

Track 5

Filename C:\Users\Julian\Music\Progger - Scattering (CD FLAC)\Progger - Scattering - 05 - Interlude.wav

Pre-gap length 0:00:02.00

Peak level 96.4 %
Extraction speed 2.7 X
Track quality 100.0 %
Test CRC 036E0608
Copy CRC 036E0608
Track not present in AccurateRip database
Copy OK

Track 6

Filename C:\Users\Julian\Music\Progger - Scattering (CD FLAC)\Progger - Scattering - 06 - Traveler.wav

Pre-gap length 0:00:02.00

Peak level 97.0 %
Extraction speed 4.1 X
Track quality 100.0 %
Test CRC FD9F8B38
Copy CRC FD9F8B38
Track not present in AccurateRip database
Copy OK

Track 7

Filename C:\Users\Julian\Music\Progger - Scattering (CD FLAC)\Progger - Scattering - 07 - Scattering.wav

Pre-gap length 0:00:02.00

Peak level 95.3 %
Extraction speed 4.3 X
Track quality 100.0 %
Test CRC 779DF5BB
Copy CRC 779DF5BB
Track not present in AccurateRip database
Copy OK

Track 8

Filename C:\Users\Julian\Music\Progger - Scattering (CD FLAC)\Progger - Scattering - 08 - Endorphin.wav

Pre-gap length 0:00:02.00

Peak level 98.7 %
Extraction speed 4.7 X
Track quality 100.0 %
Test CRC DB28D678
Copy CRC DB28D678
Track not present in AccurateRip database
Copy OK

Track 9

Filename C:\Users\Julian\Music\Progger - Scattering (CD FLAC)\Progger - Scattering - 09 - Postlude.wav

Pre-gap length 0:00:02.00

Peak level 96.4 %
Extraction speed 1.9 X
Track quality 100.0 %
Test CRC 86450DA0
Copy CRC 86450DA0
Track not present in AccurateRip database
Copy OK

Track 10

Filename C:\Users\Julian\Music\Progger - Scattering (CD FLAC)\Progger - Scattering - 10 - Werewolf.wav

Pre-gap length 0:00:02.00

Peak level 97.4 %
Extraction speed 4.8 X
Track quality 100.0 %
Test CRC 2DF7B3F7
Copy CRC 2DF7B3F7
Track not present in AccurateRip database
Copy OK


None of the tracks are present in the AccurateRip database

No errors occurred

End of status report

==== Log checksum E1E54002C56C34D277D0DE90C3DB3E86AAB6E53762A37293F0CD7FA3B12A76E3 ====

Thanks to the Original ripper tpace !