Subcategories

Henry Purcell - Complete Chamber Music - Musica Amphion/Pieter-Jan Belder [1/7]

Posted By: zamorna
Henry Purcell - Complete Chamber Music - Musica Amphion/Pieter-Jan Belder [1/7]

Henry Purcell - Complete Chamber Music - Musica Amphion/Pieter-Jan Belder [1/7]
CD 1: Twelve Sonatas of three parts (1683)

Classical, Baroque | 1 CD | EAC | FLAC, CUE, LOG | Scans | 431 MB
Recorded: June 2007, Doopsgezinde Kerk Deventer
Released: 2007 | Label: Brilliant 93647/1 | TT: 78:33 | RS


Musica Amphion (Rémy Baudet, Sayuri Yamagata - violin,
Rainer Zipperling - viola da gamba,
Pieter-Jan Belder - harpsich. & organ)

Though he is better known for his theater music, Henry Purcell did not altogether neglect chamber music, and his chamber music is arguably as characteristic and successful as his dramatic music. That argument is made here by the Dutch period-instrument ensemble Musica Amphion under the direction of harpsichordist Pieter-Jan Belder. First-rate players all, the Dutch musicians are wholly up to the challenges of Purcell's music. The one set of Fantasias for strings and two sets of sonatas for strings have the rich, warm ensemble sound and strong approach to tempo that suit the music so well. The soloists in the Sonata for trumpet and the Suite for two violins are easily in the same league as the best-known international players. And Belder, a student of Bob van Asperen, is everything one could want in the suites and miscellaneous pieces for harpsichord: agile, expressive, and always accurate. Recorded in 2006 and 2007, the sound here is bright and clear, yet atmospheric. In short, listeners interested in exploring Purcell's oeuvre in depth will find much to enjoy here. (James Leonard, allmusic.com)

Tracklist:

CD1: Twelve Sonatas of three parts (1683)

Sonata I in G minor
1. (Adagio)
2. Vivace
3. Adagio Presto
4. Largo

Sonata II in B flat major
5. Adagio
6. Largo Presto
7. Adagio
8. Allegro

Sonata III in D minor
9. (Grave) Adagio
10. Canzona
11. Poco Largo Allegro

Sonata IV in F major
12. (Adagio)
13. Canzona
14. Poco Largo
15. Allegro

Sonata V in A minor
16. (Canzona)
17. Adagio
18. Largo
19. Grave Canzona

Sonata VI in C major
20. (Adagio)
21. Canzona
22. Largo
23. Allegro

Sonata VII in E minor
24. (Adagio)
25. Canzona
26. Largo
27. Grave
28. Vivace

Sonata VIII in G major
29. (Canzona)
30. Poco Largo Allegro
31. Grave Vivace

Sonata IX in C minor
32. (Adagio)
33. Largo
34. Canzona Adagio
35. Allegro

Sonata X in A major
36. (Adagio)
37. Largo
38. Grave Presto

Sonata XI in F minor
39. (Adagio)
40. Canzona
41. Adagio
42. Largo

Sonata XII in D major
43. Adagio
44. Canzona
45. Poco Largo
46. Grave Presto
47. Allegro


Exact Audio Copy V0.99 prebeta 5 from 4. May 2009

EAC extraction logfile from 25. December 2009, 18:57

Musica Amphion / Purcell: 12 Sonatas of three parts (1683)

Used drive : HL-DT-STDVDRAM GSA-T50N Adapter: 0 ID: 1

Read mode : Secure
Utilize accurate stream : Yes
Defeat audio cache : Yes
Make use of C2 pointers : No

Read offset correction : 667
Overread into Lead-In and Lead-Out : No
Fill up missing offset samples with silence : Yes
Delete leading and trailing silent blocks : No
Null samples used in CRC calculations : Yes
Used interface : Native Win32 interface for Win NT & 2000

Used output format : User Defined Encoder
Selected bitrate : 1024 kBit/s
Quality : High
Add ID3 tag : No
Command line compressor : C:\Program Files\Exact Audio Copy\FLAC\FLAC.EXE
Additional command line options : -6 -V -T "ARTIST=%a" -T "TITLE=%t" -T "ALBUM=%g" -T "DATE=%y" -T "TRACKNUMBER=%n" -T "GENRE=%m" -T "COMMENT=%e" %s -o %d


TOC of the extracted CD

Track | Start | Length | Start sector | End sector
––––––––––––––––––––––––––––-
1 | 0:00.00 | 1:39.27 | 0 | 7451
2 | 1:39.27 | 1:05.32 | 7452 | 12358
3 | 2:44.59 | 2:22.63 | 12359 | 23071
4 | 5:07.47 | 1:44.28 | 23072 | 30899
5 | 6:52.00 | 1:42.15 | 30900 | 38564
6 | 8:34.15 | 1:21.22 | 38565 | 44661
7 | 9:55.37 | 1:36.22 | 44662 | 51883
8 | 11:31.59 | 1:28.33 | 51884 | 58516
9 | 13:00.17 | 1:41.43 | 58517 | 66134
10 | 14:41.60 | 1:48.30 | 66135 | 74264
11 | 16:30.15 | 2:48.17 | 74265 | 86881
12 | 19:18.32 | 1:53.43 | 86882 | 95399
13 | 21:12.00 | 1:13.12 | 95400 | 100886
14 | 22:25.12 | 1:23.74 | 100887 | 107185
15 | 23:49.11 | 2:21.59 | 107186 | 117819
16 | 26:10.70 | 1:10.28 | 117820 | 123097
17 | 27:21.23 | 1:44.04 | 123098 | 130901
18 | 29:05.27 | 1:30.30 | 130902 | 137681
19 | 30:35.57 | 2:02.21 | 137682 | 146852
20 | 32:38.03 | 3:15.56 | 146853 | 161533
21 | 35:53.59 | 1:44.45 | 161534 | 169378
22 | 37:38.29 | 1:04.30 | 169379 | 174208
23 | 38:42.59 | 0:43.25 | 174209 | 177458
24 | 39:26.09 | 1:56.30 | 177459 | 186188
25 | 41:22.39 | 1:31.74 | 186189 | 193087
26 | 42:54.38 | 1:46.32 | 193088 | 201069
27 | 44:40.70 | 1:14.45 | 201070 | 206664
28 | 45:55.40 | 1:51.45 | 206665 | 215034
29 | 47:47.10 | 1:07.05 | 215035 | 220064
30 | 48:54.15 | 2:46.64 | 220065 | 232578
31 | 51:41.04 | 1:39.36 | 232579 | 240039
32 | 53:20.40 | 1:46.69 | 240040 | 248058
33 | 55:07.34 | 1:22.03 | 248059 | 254211
34 | 56:29.37 | 2:33.71 | 254212 | 265757
35 | 59:03.33 | 1:53.21 | 265758 | 274253
36 | 60:56.54 | 2:04.15 | 274254 | 283568
37 | 63:00.69 | 1:21.56 | 283569 | 289699
38 | 64:22.50 | 2:08.35 | 289700 | 299334
39 | 66:31.10 | 1:54.74 | 299335 | 307958
40 | 68:26.09 | 1:27.57 | 307959 | 314540
41 | 69:53.66 | 1:19.60 | 314541 | 320525
42 | 71:13.51 | 1:34.16 | 320526 | 327591
43 | 72:47.67 | 1:00.27 | 327592 | 332118
44 | 73:48.19 | 1:05.05 | 332119 | 336998
45 | 74:53.24 | 1:11.48 | 336999 | 342371
46 | 76:04.72 | 1:21.19 | 342372 | 348465
47 | 77:26.16 | 1:04.57 | 348466 | 353322


Range status and errors

Selected range

Filename C:\Musica Amphion - Purcell 12 Sonatas of three parts (1683).wav

Peak level 87.4 %
Range quality 100.0 %
Test CRC D7C2CF4C
Copy CRC D7C2CF4C
Copy OK

No errors occurred


AccurateRip summary

Track 1 accurately ripped (confidence 6) [4D663E01]
Track 2 accurately ripped (confidence 6) [895CBD07]
Track 3 accurately ripped (confidence 6) [AAED4912]
Track 4 accurately ripped (confidence 6) [FFFECCCC]
Track 5 accurately ripped (confidence 6) [D03550E5]
Track 6 accurately ripped (confidence 6) [16453D24]
Track 7 accurately ripped (confidence 6) [C3CB41F9]
Track 8 accurately ripped (confidence 6) [59DBE30E]
Track 9 accurately ripped (confidence 6) [BBA56D8A]
Track 10 accurately ripped (confidence 6) [030E6E86]
Track 11 accurately ripped (confidence 6) [1FBFA79E]
Track 12 accurately ripped (confidence 6) [C82CAEAD]
Track 13 accurately ripped (confidence 6) [FC76A4D2]
Track 14 accurately ripped (confidence 6) [7BF42CB2]
Track 15 accurately ripped (confidence 6) [94D61006]
Track 16 accurately ripped (confidence 6) [A96AE826]
Track 17 accurately ripped (confidence 6) [D18E07AC]
Track 18 accurately ripped (confidence 6) [1189457C]
Track 19 accurately ripped (confidence 6) [E6316323]
Track 20 accurately ripped (confidence 6) [07F64067]
Track 21 accurately ripped (confidence 6) [D9634AD4]
Track 22 accurately ripped (confidence 6) [B7CC25FF]
Track 23 accurately ripped (confidence 6) [A69CA2EB]
Track 24 accurately ripped (confidence 6) [9770D2AD]
Track 25 accurately ripped (confidence 6) [704C7358]
Track 26 accurately ripped (confidence 6) [75F7ABF5]
Track 27 accurately ripped (confidence 6) [F66F436A]
Track 28 accurately ripped (confidence 6) [F849AB2C]
Track 29 accurately ripped (confidence 6) [EDBEC6B6]
Track 30 accurately ripped (confidence 6) [01360E7D]
Track 31 accurately ripped (confidence 6) [C42C9802]
Track 32 accurately ripped (confidence 6) [72BF8623]
Track 33 accurately ripped (confidence 6) [3443A517]
Track 34 accurately ripped (confidence 6) [72C0572A]
Track 35 accurately ripped (confidence 6) [1B2624CA]
Track 36 accurately ripped (confidence 6) [D2F3A714]
Track 37 accurately ripped (confidence 6) [5DF3B39B]
Track 38 accurately ripped (confidence 6) [8B03C455]
Track 39 accurately ripped (confidence 6) [94CBEC08]
Track 40 accurately ripped (confidence 6) [21A7DD67]
Track 41 accurately ripped (confidence 6) [777EF0F1]
Track 42 accurately ripped (confidence 6) [2AB35506]
Track 43 accurately ripped (confidence 6) [BF88ADEC]
Track 44 accurately ripped (confidence 6) [783C9D8D]
Track 45 accurately ripped (confidence 6) [2C174F84]
Track 46 accurately ripped (confidence 6) [47C70E6A]
Track 47 accurately ripped (confidence 6) [BE46D3FA]

All tracks accurately ripped

End of status report



Rapidshare Links