Subcategories

Henry Purcell - Complete Chamber Music - Musica Amphion/Pieter-Jan Belder [2/7]

Posted By: zamorna
Henry Purcell - Complete Chamber Music - Musica Amphion/Pieter-Jan Belder [2/7]

Henry Purcell - Complete Chamber Music - Musica Amphion/Pieter-Jan Belder [2/7]
CD 2: Ten Sonatas in Four Parts (1697)

Classical, Baroque | 1 CD | EAC | FLAC, CUE, LOG | Scans | 449 MB
Recorded: 2006, Hervormde Kerk, Rhoon, NL
Released: 2008 | Label: Brilliant 93647/2 | TT: 79:36 | RS


Musica Amphion (Rémy Baudet, Sayuri Yamagata - violin,
Mieneke van der Velden - viola da gamba,
Pieter-Jan Belder - harpsich. & organ)


Tracklist:

CD 2: Ten Sonatas in Four Parts (1697)

Sonata I in B minor
1. Adagio Canzona (allegro)
2. Largo
3. Vivace

Sonata II in E flat major
4. Adagio
5. Canzona (allegro)
6. Adagio
7. Largo allegro

Sonata III in A minor
8. Grave
9. Largo
10. Adagio
11. Allegro

Sonata IV in D minor
12. Adagio
13. Canzona
14. Adagio
15. Vivace
16. Largo

Sonata V in G minor
17. Adagio
18. Canzona
19. Largo
20. Adagio
21. Presto allegro adagio

Sonata VI in G minor (Chaconne)
22. Adagio

Sonata VII in E minor
23. Vivace
24. Largo
25. Grave Canzona
26. Allegro

Sonata VIII in G minor
27. Adagio
28. Canzona
29. Grave
30. Largo
31. Vivace

Sonata IX in F major
32. Vivace
33. Adagio
34. Canzona
35. Grave
36. Allegro

Sonata X in D major
37. Adagio
38. Canzona (allegro)
39. Grave
40. Largo
41. AllegrO


Exact Audio Copy V0.99 prebeta 5 from 4. May 2009

EAC extraction logfile from 25. December 2009, 19:37

Musica Amphion / Purcell: 10 Sonantas in 4 Parts (1697)

Used drive : HL-DT-STDVDRAM GSA-T50N Adapter: 0 ID: 1

Read mode : Secure
Utilize accurate stream : Yes
Defeat audio cache : Yes
Make use of C2 pointers : No

Read offset correction : 667
Overread into Lead-In and Lead-Out : No
Fill up missing offset samples with silence : Yes
Delete leading and trailing silent blocks : No
Null samples used in CRC calculations : Yes
Used interface : Native Win32 interface for Win NT & 2000

Used output format : User Defined Encoder
Selected bitrate : 1024 kBit/s
Quality : High
Add ID3 tag : No
Command line compressor : C:\Program Files\Exact Audio Copy\FLAC\FLAC.EXE
Additional command line options : -6 -V -T "ARTIST=%a" -T "TITLE=%t" -T "ALBUM=%g" -T "DATE=%y" -T "TRACKNUMBER=%n" -T "GENRE=%m" -T "COMMENT=%e" %s -o %d


TOC of the extracted CD

Track | Start | Length | Start sector | End sector
––––––––––––––––––––––––––––-
1 | 0:00.00 | 2:11.62 | 0 | 9886
2 | 2:11.62 | 2:25.72 | 9887 | 20833
3 | 4:37.59 | 2:08.19 | 20834 | 30452
4 | 6:46.03 | 1:24.71 | 30453 | 36823
5 | 8:10.74 | 1:56.19 | 36824 | 45542
6 | 10:07.18 | 1:40.61 | 45543 | 53103
7 | 11:48.04 | 2:32.16 | 53104 | 64519
8 | 14:20.20 | 1:35.11 | 64520 | 71655
9 | 15:55.31 | 1:50.51 | 71656 | 79956
10 | 17:46.07 | 2:39.43 | 79957 | 91924
11 | 20:25.50 | 1:55.43 | 91925 | 100592
12 | 22:21.18 | 2:22.03 | 100593 | 111245
13 | 24:43.21 | 1:52.46 | 111246 | 119691
14 | 26:35.67 | 0:59.31 | 119692 | 124147
15 | 27:35.23 | 2:17.65 | 124148 | 134487
16 | 29:53.13 | 2:02.55 | 134488 | 143692
17 | 31:55.68 | 1:37.01 | 143693 | 150968
18 | 33:32.69 | 1:07.36 | 150969 | 156029
19 | 34:40.30 | 2:28.20 | 156030 | 167149
20 | 37:08.50 | 0:44.30 | 167150 | 170479
21 | 37:53.05 | 2:32.22 | 170480 | 181901
22 | 40:25.27 | 8:14.36 | 181902 | 218987
23 | 48:39.63 | 1:05.24 | 218988 | 223886
24 | 49:45.12 | 1:44.14 | 223887 | 231700
25 | 51:29.26 | 2:04.17 | 231701 | 241017
26 | 53:33.43 | 2:40.28 | 241018 | 253045
27 | 56:13.71 | 2:05.05 | 253046 | 262425
28 | 58:19.01 | 1:32.30 | 262426 | 269355
29 | 59:51.31 | 0:33.46 | 269356 | 271876
30 | 60:25.02 | 4:26.36 | 271877 | 291862
31 | 64:51.38 | 0:48.66 | 291863 | 295528
32 | 65:40.29 | 1:00.47 | 295529 | 300075
33 | 66:41.01 | 1:37.27 | 300076 | 307377
34 | 68:18.28 | 1:51.43 | 307378 | 315745
35 | 70:09.71 | 1:22.51 | 315746 | 321946
36 | 71:32.47 | 1:29.18 | 321947 | 328639
37 | 73:01.65 | 1:34.19 | 328640 | 335708
38 | 74:36.09 | 1:35.17 | 335709 | 342850
39 | 76:11.26 | 1:20.64 | 342851 | 348914
40 | 77:32.15 | 1:00.49 | 348915 | 353463
41 | 78:32.64 | 1:01.52 | 353464 | 358090


Range status and errors

Selected range

Filename C:\Musica Amphion - Purcell 10 Sonantas in 4 Parts (1697).wav

Peak level 100.0 %
Range quality 100.0 %
Test CRC 7F51FD77
Copy CRC 7F51FD77
Copy OK

No errors occurred


AccurateRip summary

Track 1 accurately ripped (confidence 6) [B6901E5B]
Track 2 accurately ripped (confidence 6) [1670B3AE]
Track 3 accurately ripped (confidence 6) [DE6FD1AE]
Track 4 accurately ripped (confidence 6) [01C5419A]
Track 5 accurately ripped (confidence 6) [03FAF4C1]
Track 6 accurately ripped (confidence 6) [BAAB810C]
Track 7 accurately ripped (confidence 6) [ECF6A3C1]
Track 8 accurately ripped (confidence 6) [00548629]
Track 9 accurately ripped (confidence 6) [6B0C1C78]
Track 10 accurately ripped (confidence 6) [0B5428E9]
Track 11 accurately ripped (confidence 6) [A0DA3335]
Track 12 accurately ripped (confidence 6) [F51498A8]
Track 13 accurately ripped (confidence 6) [79AABB72]
Track 14 accurately ripped (confidence 6) [3BF6DC31]
Track 15 accurately ripped (confidence 6) [7E0FB8C8]
Track 16 accurately ripped (confidence 6) [D5ED6CCA]
Track 17 accurately ripped (confidence 6) [63D41A52]
Track 18 accurately ripped (confidence 6) [010904D9]
Track 19 accurately ripped (confidence 6) [76C77C54]
Track 20 accurately ripped (confidence 6) [DEF2A51E]
Track 21 accurately ripped (confidence 6) [4AD0A72E]
Track 22 accurately ripped (confidence 6) [CD98CDCE]
Track 23 accurately ripped (confidence 6) [D1A9CEA1]
Track 24 accurately ripped (confidence 6) [E1216C0E]
Track 25 accurately ripped (confidence 6) [AC735DCD]
Track 26 accurately ripped (confidence 6) [9A95C909]
Track 27 accurately ripped (confidence 6) [C733EC38]
Track 28 accurately ripped (confidence 6) [93DEF914]
Track 29 accurately ripped (confidence 6) [CBD06486]
Track 30 accurately ripped (confidence 6) [B83F64F4]
Track 31 accurately ripped (confidence 6) [5FAC165F]
Track 32 accurately ripped (confidence 6) [45EAD608]
Track 33 accurately ripped (confidence 6) [57B52E3D]
Track 34 accurately ripped (confidence 6) [DE9B2795]
Track 35 accurately ripped (confidence 6) [A5C0E38F]
Track 36 accurately ripped (confidence 6) [A7A7D669]
Track 37 accurately ripped (confidence 6) [C861231F]
Track 38 accurately ripped (confidence 6) [EE573A81]
Track 39 accurately ripped (confidence 6) [FFD2A012]
Track 40 accurately ripped (confidence 6) [D180C5F0]
Track 41 accurately ripped (confidence 6) [84F4BFA3]

All tracks accurately ripped

End of status report



Rapidshare Links