Subcategories

Henry Purcell - Complete Chamber Music - Musica Amphion/Pieter-Jan Belder [3/7]

Posted By: zamorna
Henry Purcell - Complete Chamber Music - Musica Amphion/Pieter-Jan Belder [3/7]

Henry Purcell - Complete Chamber Music - Musica Amphion/Pieter-Jan Belder [3/7]
CD 3: Chamber Music

Classical, Baroque | 1 CD | EAC | FLAC, CUE, LOG | Scans | 347 MB
Recorded: Sept. 2007, Doopsgezinde Kerk, Deventer & NH Kerk, Rhoon, NL
Released: 2008 | Label: Brilliant 93647/3 | TT: 65:07 | RS


Musica Amphion (Rémy Baudet, Sayuri Yamagata - violin,
Staas Swierstra - viola & violin, Deirdre Dowling - viola,
Mieneke van der Velden - viola da gamba, Saskia Coolen, Thera de Clerck,
Erik Bosgraaf - recorder, William Wroth - trumpet,
Pieter-Jan Belder - harpsichord, organ & recorder (track 16 only)


Tracklist:

CD 3:

1. Overture in G major for two violins viola & basso continuo
2. Pavan of four parts in G minor for three violins & b.c
3. Chacony for two violins viola & b.c

Sonata for trumpet strings & b.c. in D major
4. (Allegro)
5. Adagio
6. Presto
7. Pavan in A major for two violins & b.c

Suite in G major for two violins viola & b.c
8. Overture
9. Air
10. Borry 8
11. Air
12. Jigg
13. Fantasia three parts on a ground for three recorders & b.c
14. Overture in D minor for two violins viola & b.C
15. Pavan in B flat major for two violins & b.c
16. Prelude for recorder in D minor

Sonata for violin & b.c. in G minor
17. Adagio
18. Allegro
19. Largo
20. Vivace
21. The Staircase Overture in B flat major for two violins & b.c.
22. Cibell for trumpet strings & b.c. in C major
23. Pavan in A minor for two violins & b.c.
24. Overture in G minor for two violins two violas & b.c.
25. Pavan in G minor for two violins & b.c.


Exact Audio Copy V0.99 prebeta 5 from 4. May 2009

EAC extraction logfile from 25. December 2009, 20:37

Musica Amphion / Purcell: Chamber Music

Used drive : HL-DT-STDVDRAM GSA-T50N Adapter: 0 ID: 1

Read mode : Secure
Utilize accurate stream : Yes
Defeat audio cache : Yes
Make use of C2 pointers : No

Read offset correction : 667
Overread into Lead-In and Lead-Out : No
Fill up missing offset samples with silence : Yes
Delete leading and trailing silent blocks : No
Null samples used in CRC calculations : Yes
Used interface : Native Win32 interface for Win NT & 2000

Used output format : User Defined Encoder
Selected bitrate : 1024 kBit/s
Quality : High
Add ID3 tag : No
Command line compressor : C:\Program Files\Exact Audio Copy\FLAC\FLAC.EXE
Additional command line options : -6 -V -T "ARTIST=%a" -T "TITLE=%t" -T "ALBUM=%g" -T "DATE=%y" -T "TRACKNUMBER=%n" -T "GENRE=%m" -T "COMMENT=%e" %s -o %d


TOC of the extracted CD

Track | Start | Length | Start sector | End sector
––––––––––––––––––––––––––––-
1 | 0:00.00 | 3:33.47 | 0 | 16021
2 | 3:33.47 | 4:04.71 | 16022 | 34392
3 | 7:38.43 | 4:47.58 | 34393 | 55975
4 | 12:26.26 | 1:17.26 | 55976 | 61776
5 | 13:43.52 | 1:41.46 | 61777 | 69397
6 | 15:25.23 | 1:18.66 | 69398 | 75313
7 | 16:44.14 | 4:05.64 | 75314 | 93752
8 | 20:50.03 | 2:58.21 | 93753 | 107123
9 | 23:48.24 | 2:02.23 | 107124 | 116296
10 | 25:50.47 | 0:58.32 | 116297 | 120678
11 | 26:49.04 | 1:16.29 | 120679 | 126407
12 | 28:05.33 | 0:39.28 | 126408 | 129360
13 | 28:44.61 | 5:06.41 | 129361 | 152351
14 | 33:51.27 | 3:35.26 | 152352 | 168502
15 | 37:26.53 | 3:19.33 | 168503 | 183460
16 | 40:46.11 | 0:44.36 | 183461 | 186796
17 | 41:30.47 | 3:00.41 | 186797 | 200337
18 | 44:31.13 | 1:19.65 | 200338 | 206327
19 | 45:51.03 | 1:26.68 | 206328 | 212845
20 | 47:17.71 | 0:53.22 | 212846 | 216842
21 | 48:11.18 | 2:26.43 | 216843 | 227835
22 | 50:37.61 | 1:18.58 | 227836 | 233743
23 | 51:56.44 | 4:00.06 | 233744 | 251749
24 | 55:56.50 | 3:46.57 | 251750 | 268756
25 | 59:43.32 | 5:22.34 | 268757 | 292940


Range status and errors

Selected range

Filename C:\Musica Amphion - Purcell Chamber Music.wav

Peak level 93.3 %
Range quality 100.0 %
Test CRC 92E67F9D
Copy CRC 92E67F9D
Copy OK

No errors occurred


AccurateRip summary

Track 1 accurately ripped (confidence 8) [A14E5274]
Track 2 accurately ripped (confidence 8) [A4E73E75]
Track 3 accurately ripped (confidence 8) [21F5923D]
Track 4 accurately ripped (confidence 8) [8D71A5FE]
Track 5 accurately ripped (confidence 8) [E2A88864]
Track 6 accurately ripped (confidence 8) [50FCA6B9]
Track 7 accurately ripped (confidence 8) [FE740C6D]
Track 8 accurately ripped (confidence 8) [71C0A3AF]
Track 9 accurately ripped (confidence 8) [618ACDAD]
Track 10 accurately ripped (confidence 8) [5FCA4708]
Track 11 accurately ripped (confidence 8) [07ECADF7]
Track 12 accurately ripped (confidence 8) [93788D6C]
Track 13 accurately ripped (confidence 8) [B9A05D46]
Track 14 accurately ripped (confidence 8) [A08D8498]
Track 15 accurately ripped (confidence 8) [867C209B]
Track 16 accurately ripped (confidence 8) [D0A76685]
Track 17 accurately ripped (confidence 8) [FB357897]
Track 18 accurately ripped (confidence 8) [0ACA6FE2]
Track 19 accurately ripped (confidence 8) [236088D0]
Track 20 accurately ripped (confidence 8) [457569E1]
Track 21 accurately ripped (confidence 8) [3564B310]
Track 22 accurately ripped (confidence 8) [E6C5A3AD]
Track 23 accurately ripped (confidence 8) [964F4396]
Track 24 accurately ripped (confidence 8) [91478BF3]
Track 25 accurately ripped (confidence 8) [6B994424]

All tracks accurately ripped

End of status report



Rapidshare Links