Subcategories

Henry Purcell - Complete Chamber Music - Musica Amphion/Pieter-Jan Belder [5/7]

Posted By: zamorna
Henry Purcell - Complete Chamber Music - Musica Amphion/Pieter-Jan Belder [5/7]

Henry Purcell - Complete Chamber Music - Musica Amphion/Pieter-Jan Belder [5/7]
CD 5: 8 Suites for the harpsichord

Classical, Baroque | 1 CD | EAC | FLAC, CUE, LOG | Scans | 312 MB
Recorded: 2007, Doopsgezinde Kerk, Deventer, NL
Released: 2008 | Label: Brilliant 93647/5 | TT: 50:32 | RS

Pieter-Jan Belder - harpsichord

[…] a highlight in this compilation is Belder's fine interpretation of Purcell's Eight suites for harpsichord; full of life and energy one moment, intimate and atmospheric the next, Belder achieves an astounding variety of emotions within his performance. (Claudine Nightingale, musicalcriticism.com)

Tracklist:

CD 5: 8 Suites for the harpsichord

Suite no.1 in G major (Z 660)
01. Prelude
02. Almand
03. Corant
04. (Minuet)

Suite no.2 in G minor (Z 661)
05. Prelude
06. Almand
07. Corant
08. Saraband

Suite no.3 in G major (Z 662)
09. Prelude
10. Almand
11. Courante

Suite no.4 in A minor (Z 663)
12. Prelude
13. Almand
14. Corante
15. Saraband

Suite no.5 in C major (Z 666)
16. Prelude
17. Almand
18. Corant
19. Saraband

Suite no.6 in D major (Z 667)
20. Prelude
21. Almand
22. (Hornpipe)

Suite no.7 in D minor (Z 668)
23. Almand very slow
24. Corant
25. Hornpipe

Suite no.8 in F major (Z 669)
26. Prelude
27. Almand
28. Corant
29. Minuet


Exact Audio Copy V0.99 prebeta 5 from 4. May 2009

EAC extraction logfile from 26. December 2009, 15:01

Purcell, Henry / Complete Chamber Music - 8 Suites for the harpsichord - CD5

Used drive : HL-DT-STDVDRAM GSA-T50N Adapter: 0 ID: 1

Read mode : Secure
Utilize accurate stream : Yes
Defeat audio cache : Yes
Make use of C2 pointers : No

Read offset correction : 667
Overread into Lead-In and Lead-Out : No
Fill up missing offset samples with silence : Yes
Delete leading and trailing silent blocks : No
Null samples used in CRC calculations : Yes
Used interface : Native Win32 interface for Win NT & 2000

Used output format : User Defined Encoder
Selected bitrate : 1024 kBit/s
Quality : High
Add ID3 tag : No
Command line compressor : C:\Program Files\Exact Audio Copy\FLAC\FLAC.EXE
Additional command line options : -6 -V -T "ARTIST=%a" -T "TITLE=%t" -T "ALBUM=%g" -T "DATE=%y" -T "TRACKNUMBER=%n" -T "GENRE=%m" -T "COMMENT=%e" %s -o %d


TOC of the extracted CD

Track | Start | Length | Start sector | End sector
––––––––––––––––––––––––––––-
1 | 0:00.00 | 0:26.26 | 0 | 1975
2 | 0:26.26 | 1:17.52 | 1976 | 7802
3 | 1:44.03 | 0:51.23 | 7803 | 11650
4 | 2:35.26 | 0:56.55 | 11651 | 15905
5 | 3:32.06 | 1:17.13 | 15906 | 21693
6 | 4:49.19 | 4:13.01 | 21694 | 40669
7 | 9:02.20 | 1:40.09 | 40670 | 48178
8 | 10:42.29 | 1:57.25 | 48179 | 56978
9 | 12:39.54 | 1:12.23 | 56979 | 62401
10 | 13:52.02 | 3:27.13 | 62402 | 77939
11 | 17:19.15 | 1:38.15 | 77940 | 85304
12 | 18:57.30 | 0:42.47 | 85305 | 88501
13 | 19:40.02 | 2:55.30 | 88502 | 101656
14 | 22:35.32 | 1:27.06 | 101657 | 108187
15 | 24:02.38 | 1:39.68 | 108188 | 115680
16 | 25:42.31 | 1:01.53 | 115681 | 120308
17 | 26:44.09 | 2:50.25 | 120309 | 133083
18 | 29:34.34 | 1:03.11 | 133084 | 137819
19 | 30:37.45 | 1:39.62 | 137820 | 145306
20 | 32:17.32 | 0:36.36 | 145307 | 148042
21 | 32:53.68 | 3:09.19 | 148043 | 162236
22 | 36:03.12 | 1:05.58 | 162237 | 167169
23 | 37:08.70 | 4:32.43 | 167170 | 187612
24 | 41:41.38 | 1:22.16 | 187613 | 193778
25 | 43:03.54 | 0:45.70 | 193779 | 197223
26 | 43:49.49 | 0:46.65 | 197224 | 200738
27 | 44:36.39 | 3:03.20 | 200739 | 214483
28 | 47:39.59 | 1:53.08 | 214484 | 222966
29 | 49:32.67 | 0:57.66 | 222967 | 227307


Range status and errors

Selected range

Filename C:\Purcell, Henry - 8 Suites for the harpsichord - CD5.wav

Peak level 68.2 %
Range quality 99.9 %
Test CRC FF7D6EF7
Copy CRC FF7D6EF7
Copy OK

No errors occurred


AccurateRip summary

Track 1 accurately ripped (confidence 6) [F97170C2]
Track 2 accurately ripped (confidence 6) [A89FEFF4]
Track 3 accurately ripped (confidence 6) [C91298E3]
Track 4 accurately ripped (confidence 6) [59379B68]
Track 5 accurately ripped (confidence 6) [374A1957]
Track 6 accurately ripped (confidence 6) [1798CF7E]
Track 7 accurately ripped (confidence 6) [E32309E0]
Track 8 accurately ripped (confidence 6) [61648594]
Track 9 accurately ripped (confidence 6) [5053C6A7]
Track 10 accurately ripped (confidence 6) [6EFBFA61]
Track 11 accurately ripped (confidence 6) [264D37CE]
Track 12 accurately ripped (confidence 6) [99C1B9B1]
Track 13 accurately ripped (confidence 6) [19B28A17]
Track 14 accurately ripped (confidence 6) [C197D9FA]
Track 15 accurately ripped (confidence 6) [0EFADA90]
Track 16 accurately ripped (confidence 6) [CB7BEC54]
Track 17 accurately ripped (confidence 6) [79853EBB]
Track 18 accurately ripped (confidence 6) [0DE5A49F]
Track 19 accurately ripped (confidence 6) [08C8D706]
Track 20 accurately ripped (confidence 6) [602FC14D]
Track 21 accurately ripped (confidence 6) [4CE4B964]
Track 22 accurately ripped (confidence 6) [5A05AC13]
Track 23 accurately ripped (confidence 6) [8F006F8C]
Track 24 accurately ripped (confidence 6) [DF5D51FA]
Track 25 accurately ripped (confidence 6) [CB75219B]
Track 26 accurately ripped (confidence 6) [E1425194]
Track 27 accurately ripped (confidence 6) [F21EC1BE]
Track 28 accurately ripped (confidence 6) [D9B99D53]
Track 29 accurately ripped (confidence 6) [0F6ACDAF]

All tracks accurately ripped

End of status report



Rapidshare Links