Subcategories

Henry Purcell - Complete Chamber Music - Musica Amphion/Pieter-Jan Belder [6/7]

Posted By: zamorna
Henry Purcell - Complete Chamber Music - Musica Amphion/Pieter-Jan Belder [6/7]

Henry Purcell - Complete Chamber Music - Musica Amphion/Pieter-Jan Belder [6/7]
CD 6: Miscellaneous pieces for the harpsichord

Classical, Baroque | 1 CD | EAC | FLAC, CUE, LOG | Scans | 330 MB
Recorded: 2007, Doopsgezinde Kerk, Deventer, NL
Released: 2008 | Label: Brilliant 93647/6 | TT: 53:44 | RS

Pieter-Jan Belder - harpsichord

[…] CD 6, comprising of 'miscellaneous pieces for the harpsichord', which on paper appears a little fragmented (each piece averages about a minute in length), works well in the devised order and Pieter-Jan Belder's sprightly performance of these short pieces makes for an enjoyable compilation. (Claudine Nightingale, musicalcriticism.com)

Tracklist:

CD 6: Miscellaneous pieces for the harpsichord

01. Songtune (Z.T694)
02. March (Z.647)
03. A song tune (Z.T695)
04. March (Z.648)
05. NewMinuet (Z.T689)
06. Minuet (Z.649)
07. AMinuet (Z.650)
08. Anew Schotch tune (Z.655)
09. A new ground (Z.T682)
10. A new Irish tune (Z 646) (Lilliburlero)
11. Riggadoon (Z.653)
12. Sefauchi’s Farewell ( Z.656)
13. Minuet (Z.T688)
14. March (Z.T687)
15. Trumpet tune (Z.T698)
16. Chaconne (Z.T680)
17. Jigg (Z.T686)
18. Trumpet tune called the Cibell (Z.T678)
19. Trumpet tune (Z.T697)
20. Air (Z.641)
21. Aire (Z.T675)
22. Aire (Z.T696/2)
23. Air (Z.676)
24. Air (Z.630/1)
25. Air (Z.T693/2)
26. Canary (Z.T677)
27. Prelude in G minor (Alternative prelude from Suite no.2 in G minor)
28. Ground in gamut (Z.645)
29. Prelude in C (from 20 harp.Pieces ed.Moroney)
30. Ground in C minor (Z.T681)
31. Ground in D minor (Z.D222)
32. Hornpipe (Z.T683)
33. Hornpipe (Z.T685)
34. Minuet (Z.651)
35. Round O (Z.T684)
36. Corant (Z.644)
37. (Gavotte) Almond in D-sol-re (Z.D219/1)
38. Ground in C minor (Z.D221)
39. Jigg (Z.D223)
40. The Queens dolour (Z.670)
41. Rigaudon (Z.D227)
42. Saraband with division (Z.654)
43. (Saraband) Borry in D-sol-re# (Z.D219/2)
44. Trumpet minuet (Z.D230)


Instruments:

Italian Virginal by Cornelis Bom 1997
Italian Harpsichord after Giusti by Cornelis Bom 2003
Flemish harpsichord after Ruckers by Cornelis Bom 1999


Exact Audio Copy V0.99 prebeta 5 from 4. May 2009

EAC extraction logfile from 26. December 2009, 16:14

Purcell, Henry / Complete Chamber Music - Miscellaneous pieces for the harpsichord - CD6

Used drive : HL-DT-STDVDRAM GSA-T50N Adapter: 0 ID: 1

Read mode : Secure
Utilize accurate stream : Yes
Defeat audio cache : Yes
Make use of C2 pointers : No

Read offset correction : 667
Overread into Lead-In and Lead-Out : No
Fill up missing offset samples with silence : Yes
Delete leading and trailing silent blocks : No
Null samples used in CRC calculations : Yes
Used interface : Native Win32 interface for Win NT & 2000

Used output format : User Defined Encoder
Selected bitrate : 1024 kBit/s
Quality : High
Add ID3 tag : No
Command line compressor : C:\Program Files\Exact Audio Copy\FLAC\FLAC.EXE
Additional command line options : -6 -V -T "ARTIST=%a" -T "TITLE=%t" -T "ALBUM=%g" -T "DATE=%y" -T "TRACKNUMBER=%n" -T

"GENRE=%m" -T "COMMENT=%e" %s -o %d


TOC of the extracted CD

Track | Start | Length | Start sector | End sector
––––––––––––––––––––––––––––-
1 | 0:00.00 | 0:50.11 | 0 | 3760
2 | 0:50.11 | 1:02.55 | 3761 | 8465
3 | 1:52.66 | 0:41.26 | 8466 | 11566
4 | 2:34.17 | 0:57.07 | 11567 | 15848
5 | 3:31.24 | 0:45.31 | 15849 | 19254
6 | 4:16.55 | 0:37.06 | 19255 | 22035
7 | 4:53.61 | 0:49.04 | 22036 | 25714
8 | 5:42.65 | 0:50.19 | 25715 | 29483
9 | 6:33.09 | 2:27.20 | 29484 | 40528
10 | 9:00.29 | 1:00.39 | 40529 | 45067
11 | 10:00.68 | 0:37.10 | 45068 | 47852
12 | 10:38.03 | 2:13.23 | 47853 | 57850
13 | 12:51.26 | 1:00.11 | 57851 | 62361
14 | 13:51.37 | 1:17.15 | 62362 | 68151
15 | 15:08.52 | 0:38.17 | 68152 | 71018
16 | 15:46.69 | 2:38.71 | 71019 | 82939
17 | 18:25.65 | 0:40.26 | 82940 | 85965
18 | 19:06.16 | 1:25.65 | 85966 | 92405
19 | 20:32.06 | 0:47.30 | 92406 | 95960
20 | 21:19.36 | 1:29.51 | 95961 | 102686
21 | 22:49.12 | 1:15.49 | 102687 | 108360
22 | 24:04.61 | 0:59.21 | 108361 | 112806
23 | 25:04.07 | 0:42.36 | 112807 | 115992
24 | 25:46.43 | 1:17.23 | 115993 | 121790
25 | 27:03.66 | 1:31.41 | 121791 | 128656
26 | 28:35.32 | 0:44.14 | 128657 | 131970
27 | 29:19.46 | 0:46.68 | 131971 | 135488
28 | 30:06.39 | 1:51.03 | 135489 | 143816
29 | 31:57.42 | 0:39.45 | 143817 | 146786
30 | 32:37.12 | 2:53.10 | 146787 | 159771
31 | 35:30.22 | 2:07.33 | 159772 | 169329
32 | 37:37.55 | 0:45.31 | 169330 | 172735
33 | 38:23.11 | 0:43.34 | 172736 | 175994
34 | 39:06.45 | 0:52.64 | 175995 | 179958
35 | 39:59.34 | 1:32.35 | 179959 | 186893
36 | 41:31.69 | 1:51.54 | 186894 | 195272
37 | 43:23.48 | 1:11.35 | 195273 | 200632
38 | 44:35.08 | 3:12.44 | 200633 | 215076
39 | 47:47.52 | 1:13.07 | 215077 | 220558
40 | 49:00.59 | 0:56.15 | 220559 | 224773
41 | 49:56.74 | 0:34.51 | 224774 | 227374
42 | 50:31.50 | 1:28.42 | 227375 | 234016
43 | 52:00.17 | 0:57.47 | 234017 | 238338
44 | 52:57.64 | 0:44.28 | 238339 | 241666


Range status and errors

Selected range

Filename C:\Purcell, Henry - Miscellaneous pieces for the harpsichord - CD6.wav

Peak level 68.0 %
Range quality 100.0 %
Test CRC 153D7E03
Copy CRC 153D7E03
Copy OK

No errors occurred


AccurateRip summary

Track 1 accurately ripped (confidence 6) [552CBD8D]
Track 2 accurately ripped (confidence 6) [3E2D3D5C]
Track 3 accurately ripped (confidence 6) [EDA33CBE]
Track 4 accurately ripped (confidence 6) [7DD3F340]
Track 5 accurately ripped (confidence 6) [C27DF72E]
Track 6 accurately ripped (confidence 6) [977DF4BA]
Track 7 accurately ripped (confidence 6) [890EAFDA]
Track 8 accurately ripped (confidence 6) [DEBD800E]
Track 9 accurately ripped (confidence 6) [FEF03F22]
Track 10 accurately ripped (confidence 6) [D9E9FF0B]
Track 11 accurately ripped (confidence 6) [3BACDF4F]
Track 12 accurately ripped (confidence 6) [141C9E74]
Track 13 accurately ripped (confidence 6) [4738F56C]
Track 14 accurately ripped (confidence 6) [FA80D743]
Track 15 accurately ripped (confidence 6) [C5AA7DB2]
Track 16 accurately ripped (confidence 6) [09D67480]
Track 17 accurately ripped (confidence 6) [D1A754AF]
Track 18 accurately ripped (confidence 6) [FAAD3068]
Track 19 accurately ripped (confidence 6) [4098A611]
Track 20 accurately ripped (confidence 6) [2399F5AF]
Track 21 accurately ripped (confidence 6) [EA05B944]
Track 22 accurately ripped (confidence 6) [0046E011]
Track 23 accurately ripped (confidence 6) [3A887924]
Track 24 accurately ripped (confidence 6) [6ADE6A29]
Track 25 accurately ripped (confidence 6) [9A138D32]
Track 26 accurately ripped (confidence 6) [C0145EA1]
Track 27 accurately ripped (confidence 6) [8E09704F]
Track 28 accurately ripped (confidence 6) [2A58BD2D]
Track 29 accurately ripped (confidence 6) [0EEDEE20]
Track 30 accurately ripped (confidence 6) [810D4743]
Track 31 accurately ripped (confidence 6) [98D6B0BF]
Track 32 accurately ripped (confidence 6) [25B20E14]
Track 33 accurately ripped (confidence 6) [1F09DE48]
Track 34 accurately ripped (confidence 6) [7EDBE24D]
Track 35 accurately ripped (confidence 6) [AC993218]
Track 36 accurately ripped (confidence 6) [E9A8AE32]
Track 37 accurately ripped (confidence 6) [D27E6FA5]
Track 38 accurately ripped (confidence 6) [DB62E2E9]
Track 39 accurately ripped (confidence 6) [01A238DA]
Track 40 accurately ripped (confidence 6) [BE03FE08]
Track 41 accurately ripped (confidence 6) [5BD45716]
Track 42 accurately ripped (confidence 6) [138911FE]
Track 43 accurately ripped (confidence 6) [644C0A4B]
Track 44 accurately ripped (confidence 6) [39A610D3]

All tracks accurately ripped

End of status report



Rapidshare Links