Subcategories

Henry Purcell - Complete Chamber Music - Musica Amphion/Pieter-Jan Belder [7/7]

Posted By: zamorna
Henry Purcell - Complete Chamber Music - Musica Amphion/Pieter-Jan Belder [7/7]

Henry Purcell - Complete Chamber Music - Musica Amphion/Pieter-Jan Belder [7/7]
CD 7: From 20 keyboard pieces (ed. Davitt Moroney) - Suite in C - Works for organ

Classical, Baroque | 1 CD | EAC | FLAC, CUE, LOG | Scans | 181 MB
Recorded: 2007, Doopsgezinde Kerk, Deventer & Genovevakerk, Breugel, NL
Released: 2008 | Label: Brilliant 93647/7 | TT: 34:09 | RS

Pieter-Jan Belder - harpsichord & organ

Brilliant Classics' recent release gathers together every piece of music by Purcell for solo harpsichord or instrumental ensemble. […] Even discounting his other vocal and operatic works, looking at the volume of music in this CD box set provokes the astounding realisation of just how prolific Purcell was in his mere 36 years of life. (Claudine Nightingale, musicalcriticism.com)

Tracklist:

CD 7: From 20 keyboard pieces (ed. Davitt Moroney) - Suite in C - Works for organ

From 20 keyboard pieces (ed. Davitt Moroney)
01. Prelude in A (alternative version to suite no. 4 Z 663)
02. Jig (17)
03. Prelude (1)
04. Minuet (2)
05. Air (3)
06. Thus happy (5)
07. Air (7)
08. Hornpipe (9)
09. Hornpipe (10)
10. Minuet (11)
11. Air (12)
12. Menuet (13)

Suite in C (Z 665)
13. Prelude
14. Almond
15. Courant
16. Saraband
17. Jigg

Works for organ
18. Voluntary in G (Z 720)
19. Verse in F (Z 716)
20. Voluntary for double organ (Z 719)
21. Voluntary in C (Z 717)
22. Voluntary on the old 100th
23. Voluntary in D minor (Z 718)


Instruments:

Flemish harpsichord after Ruckers Cornelis Bom 1999
Italian Virginal by Cornelis Bom 1997
Italian Harpsichord after Giusti by Cornelis Bom 2003
Organ by Johannes Vollebregt 1854


Exact Audio Copy V0.99 prebeta 5 from 4. May 2009

EAC extraction logfile from 26. December 2009, 16:52

Purcell, Henry / Complete Chamber Music - from 20 keyboard pieces; Suite in C; Works for Organ - CD7

Used drive : HL-DT-STDVDRAM GSA-T50N Adapter: 0 ID: 1

Read mode : Secure
Utilize accurate stream : Yes
Defeat audio cache : Yes
Make use of C2 pointers : No

Read offset correction : 667
Overread into Lead-In and Lead-Out : No
Fill up missing offset samples with silence : Yes
Delete leading and trailing silent blocks : No
Null samples used in CRC calculations : Yes
Used interface : Native Win32 interface for Win NT & 2000

Used output format : User Defined Encoder
Selected bitrate : 1024 kBit/s
Quality : High
Add ID3 tag : No
Command line compressor : C:\Program Files\Exact Audio Copy\FLAC\FLAC.EXE
Additional command line options : -6 -V -T "ARTIST=%a" -T "TITLE=%t" -T "ALBUM=%g" -T "DATE=%y" -T "TRACKNUMBER=%n" -T

"GENRE=%m" -T "COMMENT=%e" %s -o %d


TOC of the extracted CD

Track | Start | Length | Start sector | End sector
––––––––––––––––––––––––––––-
1 | 0:00.00 | 0:54.02 | 0 | 4051
2 | 0:54.02 | 1:16.67 | 4052 | 9818
3 | 2:10.69 | 0:25.50 | 9819 | 11743
4 | 2:36.44 | 0:35.21 | 11744 | 14389
5 | 3:11.65 | 0:30.44 | 14390 | 16683
6 | 3:42.34 | 0:41.74 | 16684 | 19832
7 | 4:24.33 | 1:02.30 | 19833 | 24512
8 | 5:26.63 | 1:00.02 | 24513 | 29014
9 | 6:26.65 | 0:59.04 | 29015 | 33443
10 | 7:25.69 | 0:40.73 | 33444 | 36516
11 | 8:06.67 | 1:14.68 | 36517 | 42134
12 | 9:21.60 | 1:06.59 | 42135 | 47143
13 | 10:28.44 | 0:44.42 | 47144 | 50485
14 | 11:13.11 | 1:46.39 | 50486 | 58474
15 | 12:59.50 | 0:59.02 | 58475 | 62901
16 | 13:58.52 | 1:33.59 | 62902 | 69935
17 | 15:32.36 | 1:04.31 | 69936 | 74766
18 | 16:36.67 | 2:45.71 | 74767 | 87212
19 | 19:22.63 | 1:28.19 | 87213 | 93831
20 | 20:51.07 | 5:14.46 | 93832 | 117427
21 | 26:05.53 | 1:24.28 | 117428 | 123755
22 | 27:30.06 | 3:07.15 | 123756 | 137795
23 | 30:37.21 | 3:35.16 | 137796 | 153936


Range status and errors

Selected range

Filename C:\Purcell, Henry - 20 keyboard pieces Suite in C Works for Organ - CD7.wav

Peak level 82.5 %
Range quality 99.9 %
Test CRC EE2FA4F0
Copy CRC EE2FA4F0
Copy OK

No errors occurred


AccurateRip summary

Track 1 accurately ripped (confidence 6) [CF2B2597]
Track 2 accurately ripped (confidence 6) [57D59EE2]
Track 3 accurately ripped (confidence 6) [DCC62EBE]
Track 4 accurately ripped (confidence 6) [A7A69351]
Track 5 accurately ripped (confidence 6) [D3EC2DCD]
Track 6 accurately ripped (confidence 6) [151BC2D9]
Track 7 accurately ripped (confidence 6) [86B22265]
Track 8 accurately ripped (confidence 6) [F78793B5]
Track 9 accurately ripped (confidence 6) [2C904315]
Track 10 accurately ripped (confidence 6) [003ECC67]
Track 11 accurately ripped (confidence 6) [532537EA]
Track 12 accurately ripped (confidence 6) [230153A7]
Track 13 accurately ripped (confidence 6) [1E37B525]
Track 14 accurately ripped (confidence 6) [B8B4E6C7]
Track 15 accurately ripped (confidence 6) [D47CEB27]
Track 16 accurately ripped (confidence 6) [B290B66C]
Track 17 accurately ripped (confidence 6) [DF6E6156]
Track 18 accurately ripped (confidence 6) [0F2F9EE5]
Track 19 accurately ripped (confidence 6) [6FD4D3DA]
Track 20 accurately ripped (confidence 6) [83FF6401]
Track 21 accurately ripped (confidence 6) [87C8EAB6]
Track 22 accurately ripped (confidence 6) [63F13D91]
Track 23 accurately ripped (confidence 6) [54DC169F]

All tracks accurately ripped

End of status report



Rapidshare Links