Subcategories

V.A. - Putumayo Presents Mali (2005)

Posted By: Speedyclick
V.A. - Putumayo Presents Mali (2005)

V.A. - Putumayo Presents Mali (2005)
EAC Rip | FLAC (image & cue & log) & mp3 @ 320 kbps | tracks: 11 | Complete Scans | 49:28 | ~ 469 Mb & 141 Mb
Label: Putumayo World Music | 5% recovery record | World, Putumayo

From the wonderful Putumayo series, this album will help you discover the captivating music of Mali, this ancient West African land. It is the homeland of some of the formost figures of today's world music scene, and the country continues to produce young and exciting artists who will keep its musical traditions vibrant for years to come. As all Putumayo releases, the album contains a rich 40p color booklet with lots of information about the artists and the country, in 3 languages. Another gem for your music library in top quality.

TRACKLIST
01. Moussa Diallo - Maninda
02. Habib Koite and Bamada - Kanawa
03. Idrissa Soumaoro - Ouili Ka Bo
04. Tinariwen - Amassakoul 'N' Tιnιrι
05. Ramatou Diakite - Gembi
06. Kιlιtigui Diabate - Koulandian
07. Tom Diakitι - Fala
08. Boubacar Traore - Kanou
09. Issa Bagayogo - Bana
10. Mamou Sidibe - Bassa Kele
11. Habib Koite and Bamada - Saramaya (Live)

Exact Audio Copy V0.99 prebeta 5 from 4. May 2009

EAC extraction logfile from 7. March 2011, 21:58

Various / Putumayo Presents - Mali

Used drive : HL-DT-STDVDRAM GH10N Adapter: 1 ID: 0

Read mode : Secure
Utilize accurate stream : Yes
Defeat audio cache : Yes
Make use of C2 pointers : No

Read offset correction : 667
Overread into Lead-In and Lead-Out : No
Fill up missing offset samples with silence : Yes
Delete leading and trailing silent blocks : No
Null samples used in CRC calculations : Yes
Used interface : Native Win32 interface for Win NT & 2000

Used output format : User Defined Encoder
Selected bitrate : 896 kBit/s
Quality : High
Add ID3 tag : No
Command line compressor : C:\Program Files\FLAC\flac.exe
Additional command line options : -V -5 -T "artist=%a" -T "title=%t" -T "album=%g" -T "date=%y" -T "tracknumber=%n" -T "genre=%m" -5 %s


TOC of the extracted CD

Track | Start | Length | Start sector | End sector
––––––––––––––––––––––––––––-
1 | 0:00.00 | 3:52.55 | 0 | 17454
2 | 3:52.55 | 5:18.55 | 17455 | 41359
3 | 9:11.35 | 3:55.32 | 41360 | 59016
4 | 13:06.67 | 3:20.28 | 59017 | 74044
5 | 16:27.20 | 4:32.22 | 74045 | 94466
6 | 20:59.42 | 2:59.43 | 94467 | 107934
7 | 23:59.10 | 5:16.30 | 107935 | 131664
8 | 29:15.40 | 5:00.00 | 131665 | 154164
9 | 34:15.40 | 4:38.55 | 154165 | 175069
10 | 38:54.20 | 3:26.25 | 175070 | 190544
11 | 42:20.45 | 7:08.07 | 190545 | 222651


Range status and errors

Selected range

Filename S:\EAC Rips\Putumayo Presents Mali\Various - Putumayo Presents - Mali.wav

Peak level 100.0 %
Range quality 99.9 %
Test CRC 46A3E7A3
Copy CRC 46A3E7A3
Copy OK

No errors occurred


AccurateRip summary

Track 1 accurately ripped (confidence 3) [B5DB2EDC]
Track 2 accurately ripped (confidence 3) [DA62332F]
Track 3 accurately ripped (confidence 3) [FBF03506]
Track 4 accurately ripped (confidence 3) [9D357061]
Track 5 accurately ripped (confidence 3) [10ABF99D]
Track 6 accurately ripped (confidence 3) [95C43ED9]
Track 7 accurately ripped (confidence 3) [8950C591]
Track 8 accurately ripped (confidence 3) [A9F57ECA]
Track 9 accurately ripped (confidence 3) [E42BED5F]
Track 10 accurately ripped (confidence 3) [D22CAF4B]
Track 11 accurately ripped (confidence 3) [D40A2342]

All tracks accurately ripped

End of status report