Subcategories

Hüsch, Degenhardt, Neuss, Süverkrüpp - Quartett ´67 (Conträr 4304-2) (GER 1996)

Posted By: luckburz
Hüsch, Degenhardt, Neuss, Süverkrüpp - Quartett ´67 (Conträr 4304-2) (GER 1996)

Hüsch, Degenhardt, Neuss, Süverkrüpp - Quartett ´67 (Conträr 4304-2) (GER 1996)
1996 | FLAC | EAC, LOG & CUE | 300dpi Artwork Scans | 462 MB

MD5 [] FFP [] CUE [X] LOG [X] INFO TEXT [X] ARTWORK [X]

webfind [] selfrip [X]

Extraction Log:

CD 01

Exact Audio Copy V0.99 prebeta 4 from 23. January 2008

EAC Auslese-Logdatei vom 27. April 2009, 13:53

Hüsch, Degenhardt, Neuss, Süverkrüpp / Quartett ´67 (Conträr 4304-2) (GER 1996) CD 1

Benutztes Laufwerk : HL-DT-STDVDRAM GSA-H12L Adapter: 0 ID: 1

Lesemodus : Sicher
Benutze Accurate Stream : Ja
Audio Puffer abgeschaltet : Nein
Benutze C2 Fehlerinformationen : Nein

Leseoffset Korrektur : 667
Überlesen in das Lead-In und Lead-Out : Nein
Fülle fehlende Offsetsample mit Stille auf : Ja
Lösche führende und nachfolgende stille Blöcke : Nein
Null Samples gehen in CRC Berechnungen ein : Ja
Benutzte Schnittstelle : Natürliche Win32 Schnittstelle für Win NT/2000/XP
Pausenbehandlung : Hinter dem vorigen Track angehängt

Benutztes Ausgabeformat : Benutzerdefinierter Komprimierer
Gewählte Bitrate : 1024 kBit/s
Qualität : Hoch
Füge ID3 Tag hinzu : Ja
Kommandozeilen Komprimierer : C:\Programme\FLAC\flac.exe
Zusätzliche Kommandozeilenoptionen : -5 -T "Artist=%a" -T "Title=%t" -T "Album=%g" -T "Date=%y" -T "Tracknumber=%n" -T "Genre=%m" %s -o %d


TOC der ausgelesenen CD

Track | Start | Länge | Startsektor | Endsektor
–––––––––––––––––––––––––––-
1 | 0:00.00 | 2:12.57 | 0 | 9956
2 | 2:12.57 | 1:01.45 | 9957 | 14576
3 | 3:14.27 | 2:11.13 | 14577 | 24414
4 | 5:25.40 | 4:16.15 | 24415 | 43629
5 | 9:41.55 | 4:08.30 | 43630 | 62259
6 | 13:50.10 | 0:34.37 | 62260 | 64846
7 | 14:24.47 | 5:09.07 | 64847 | 88028
8 | 19:33.54 | 3:36.31 | 88029 | 104259
9 | 23:10.10 | 3:32.42 | 104260 | 120201
10 | 26:42.52 | 3:49.15 | 120202 | 137391
11 | 30:31.67 | 4:50.03 | 137392 | 159144
12 | 35:21.70 | 4:18.60 | 159145 | 178554
13 | 39:40.55 | 3:37.02 | 178555 | 194831


Track 1

Dateiname V:\INCOMING\LOSSLESS\ZZZ-EAC\01 Für Wen Wir Singen.wav

Pausenlänge 0:00:02.00

Spitzenpegel 92.5 %
Track Qualität 100.0 %
Test CRC 3E2F768D
Kopie CRC 3E2F768D
Track ist nicht enthalten in der AccurateRip Datenbank
Kopie OK

Track 2

Dateiname V:\INCOMING\LOSSLESS\ZZZ-EAC\02 Seele Der Apartheid.wav

Spitzenpegel 90.4 %
Track Qualität 100.0 %
Test CRC C89F67EE
Kopie CRC C89F67EE
Track ist nicht enthalten in der AccurateRip Datenbank
Kopie OK

Track 3

Dateiname V:\INCOMING\LOSSLESS\ZZZ-EAC\03 An Alle Leichtfertig Gutgläubigen SPD-Wähler.wav

Spitzenpegel 85.4 %
Track Qualität 99.9 %
Test CRC 333EE192
Kopie CRC 333EE192
Track ist nicht enthalten in der AccurateRip Datenbank
Kopie OK

Track 4

Dateiname V:\INCOMING\LOSSLESS\ZZZ-EAC\04 So Sind Hier die Leute.wav

Spitzenpegel 94.8 %
Track Qualität 100.0 %
Test CRC 4B35E5C7
Kopie CRC 4B35E5C7
Track ist nicht enthalten in der AccurateRip Datenbank
Kopie OK

Track 5

Dateiname V:\INCOMING\LOSSLESS\ZZZ-EAC\05 Minnelied ´68.wav

Spitzenpegel 85.8 %
Track Qualität 99.9 %
Test CRC AE97F55E
Kopie CRC AE97F55E
Track ist nicht enthalten in der AccurateRip Datenbank
Kopie OK

Track 6

Dateiname V:\INCOMING\LOSSLESS\ZZZ-EAC\06 EWG (England Will Geiner).wav

Spitzenpegel 85.9 %
Track Qualität 100.0 %
Test CRC A3B1C87D
Kopie CRC A3B1C87D
Track ist nicht enthalten in der AccurateRip Datenbank
Kopie OK

Track 7

Dateiname V:\INCOMING\LOSSLESS\ZZZ-EAC\07 Das Leben - Ein Supermarkt.wav

Spitzenpegel 88.9 %
Track Qualität 100.0 %
Test CRC A7D6C785
Kopie CRC A7D6C785
Track ist nicht enthalten in der AccurateRip Datenbank
Kopie OK

Track 8

Dateiname V:\INCOMING\LOSSLESS\ZZZ-EAC\08 Notar Bolamus.wav

Spitzenpegel 91.1 %
Track Qualität 100.0 %
Test CRC 35FED9FD
Kopie CRC 35FED9FD
Track ist nicht enthalten in der AccurateRip Datenbank
Kopie OK

Track 9

Dateiname V:\INCOMING\LOSSLESS\ZZZ-EAC\09 Deutsche Zunge.wav

Spitzenpegel 92.8 %
Track Qualität 100.0 %
Test CRC 231B702F
Kopie CRC 231B702F
Track ist nicht enthalten in der AccurateRip Datenbank
Kopie OK

Track 10

Dateiname V:\INCOMING\LOSSLESS\ZZZ-EAC\10 Verkürzte Darstellung Eines Neuerlichen Deutschland-Erwachens.wav

Spitzenpegel 99.9 %
Track Qualität 100.0 %
Test CRC AC5165A7
Kopie CRC AC5165A7
Track ist nicht enthalten in der AccurateRip Datenbank
Kopie OK

Track 11

Dateiname V:\INCOMING\LOSSLESS\ZZZ-EAC\11 Ich Bin Ein Deutscher Lästerer.wav

Spitzenpegel 99.9 %
Track Qualität 100.0 %
Test CRC 143A7AC1
Kopie CRC 143A7AC1
Track ist nicht enthalten in der AccurateRip Datenbank
Kopie OK

Track 12

Dateiname V:\INCOMING\LOSSLESS\ZZZ-EAC\12 Wanderlied ´68.wav

Spitzenpegel 100.0 %
Track Qualität 100.0 %
Test CRC 8ED47CBB
Kopie CRC 8ED47CBB
Track ist nicht enthalten in der AccurateRip Datenbank
Kopie OK

Track 13

Dateiname V:\INCOMING\LOSSLESS\ZZZ-EAC\13 Da Bin Ich Zu Hause.wav

Spitzenpegel 99.9 %
Track Qualität 100.0 %
Test CRC 4AC67B95
Kopie CRC 4AC67B95
Track ist nicht enthalten in der AccurateRip Datenbank
Kopie OK


Keiner der Tracks ist in der AccurateRip Datenbank vorhanden

Keine Fehler aufgetreten

Ende des Statusreports


CD 02

Exact Audio Copy V0.99 prebeta 4 from 23. January 2008

EAC Auslese-Logdatei vom 27. April 2009, 14:07

Hüsch, Degenhardt, Neuss, Süverkrüpp / Quartett ´67 (Conträr 4304-2) (GER 1996) CD 2

Benutztes Laufwerk : HL-DT-STDVDRAM GSA-H12L Adapter: 0 ID: 1

Lesemodus : Sicher
Benutze Accurate Stream : Ja
Audio Puffer abgeschaltet : Nein
Benutze C2 Fehlerinformationen : Nein

Leseoffset Korrektur : 667
Überlesen in das Lead-In und Lead-Out : Nein
Fülle fehlende Offsetsample mit Stille auf : Ja
Lösche führende und nachfolgende stille Blöcke : Nein
Null Samples gehen in CRC Berechnungen ein : Ja
Benutzte Schnittstelle : Natürliche Win32 Schnittstelle für Win NT/2000/XP
Pausenbehandlung : Hinter dem vorigen Track angehängt

Benutztes Ausgabeformat : Benutzerdefinierter Komprimierer
Gewählte Bitrate : 1024 kBit/s
Qualität : Hoch
Füge ID3 Tag hinzu : Ja
Kommandozeilen Komprimierer : C:\Programme\FLAC\flac.exe
Zusätzliche Kommandozeilenoptionen : -5 -T "Artist=%a" -T "Title=%t" -T "Album=%g" -T "Date=%y" -T "Tracknumber=%n" -T "Genre=%m" %s -o %d


TOC der ausgelesenen CD

Track | Start | Länge | Startsektor | Endsektor
–––––––––––––––––––––––––––-
1 | 0:00.00 | 5:17.20 | 0 | 23794
2 | 5:17.20 | 4:23.57 | 23795 | 43576
3 | 9:41.02 | 3:15.13 | 43577 | 58214
4 | 12:56.15 | 2:04.42 | 58215 | 67556
5 | 15:00.57 | 6:15.72 | 67557 | 95753
6 | 21:16.54 | 1:18.58 | 95754 | 101661
7 | 22:35.37 | 0:15.48 | 101662 | 102834
8 | 22:51.10 | 0:43.22 | 102835 | 106081
9 | 23:34.32 | 1:42.20 | 106082 | 113751
10 | 25:16.52 | 1:00.33 | 113752 | 118284
11 | 26:17.10 | 1:03.72 | 118285 | 123081
12 | 27:21.07 | 2:10.40 | 123082 | 132871
13 | 29:31.47 | 2:43.43 | 132872 | 145139
14 | 32:15.15 | 1:57.72 | 145140 | 153986
15 | 34:13.12 | 4:26.58 | 153987 | 173994
16 | 38:39.70 | 3:53.17 | 173995 | 191486


Track 1

Dateiname V:\INCOMING\LOSSLESS\ZZZ-EAC\01 Traum Von Der Solidarität.wav

Pausenlänge 0:00:02.00

Spitzenpegel 99.0 %
Track Qualität 100.0 %
Test CRC 95C21839
Kopie CRC 95C21839
Track ist nicht enthalten in der AccurateRip Datenbank
Kopie OK

Track 2

Dateiname V:\INCOMING\LOSSLESS\ZZZ-EAC\02 Erschröckliche Moritat Vom Kryptokommunisten.wav

Spitzenpegel 98.0 %
Track Qualität 100.0 %
Test CRC 1EEC0B5A
Kopie CRC 1EEC0B5A
Track ist nicht enthalten in der AccurateRip Datenbank
Kopie OK

Track 3

Dateiname V:\INCOMING\LOSSLESS\ZZZ-EAC\03 Kirschen Auf Sahne.wav

Spitzenpegel 93.1 %
Track Qualität 100.0 %
Test CRC E153E962
Kopie CRC E153E962
Track ist nicht enthalten in der AccurateRip Datenbank
Kopie OK

Track 4

Dateiname V:\INCOMING\LOSSLESS\ZZZ-EAC\04 Hier Sind Die Deutschen Rundfunksender.wav

Spitzenpegel 96.1 %
Track Qualität 100.0 %
Test CRC EC4202A5
Kopie CRC EC4202A5
Track ist nicht enthalten in der AccurateRip Datenbank
Kopie OK

Track 5

Dateiname V:\INCOMING\LOSSLESS\ZZZ-EAC\05 Horsti Schmandhoff.wav

Spitzenpegel 99.2 %
Track Qualität 100.0 %
Test CRC 8B227934
Kopie CRC 8B227934
Track ist nicht enthalten in der AccurateRip Datenbank
Kopie OK

Track 6

Dateiname V:\INCOMING\LOSSLESS\ZZZ-EAC\06 Der Lachenden Mann Aus Dem Kongo.wav

Spitzenpegel 97.4 %
Track Qualität 100.0 %
Test CRC 083C699D
Kopie CRC 083C699D
Track ist nicht enthalten in der AccurateRip Datenbank
Kopie OK

Track 7

Dateiname V:\INCOMING\LOSSLESS\ZZZ-EAC\07 Viele Sagen….wav

Spitzenpegel 80.8 %
Track Qualität 100.0 %
Test CRC EFFA8550
Kopie CRC EFFA8550
Track ist nicht enthalten in der AccurateRip Datenbank
Kopie OK

Track 8

Dateiname V:\INCOMING\LOSSLESS\ZZZ-EAC\08 Wirtschaftsbericht Bei Der Nirgendwo AG Im Nirgendwoland.wav

Spitzenpegel 91.3 %
Track Qualität 100.0 %
Test CRC 4F85FBFE
Kopie CRC 4F85FBFE
Track ist nicht enthalten in der AccurateRip Datenbank
Kopie OK

Track 9

Dateiname V:\INCOMING\LOSSLESS\ZZZ-EAC\09 Hexenverbrennung Nach Einem Alten Holzschnitt.wav

Spitzenpegel 95.8 %
Track Qualität 99.8 %
Test CRC 6F8B269C
Kopie CRC 6F8B269C
Track ist nicht enthalten in der AccurateRip Datenbank
Kopie OK

Track 10

Dateiname V:\INCOMING\LOSSLESS\ZZZ-EAC\10 Rein Technisches.wav

Spitzenpegel 96.1 %
Track Qualität 99.8 %
Test CRC 118037F8
Kopie CRC 118037F8
Track ist nicht enthalten in der AccurateRip Datenbank
Kopie OK

Track 11

Dateiname V:\INCOMING\LOSSLESS\ZZZ-EAC\11 Partisanenbekämpfung.wav

Spitzenpegel 98.3 %
Track Qualität 100.0 %
Test CRC DFA5DB34
Kopie CRC DFA5DB34
Track ist nicht enthalten in der AccurateRip Datenbank
Kopie OK

Track 12

Dateiname V:\INCOMING\LOSSLESS\ZZZ-EAC\12 Westernballade.wav

Spitzenpegel 96.8 %
Track Qualität 100.0 %
Test CRC B3580747
Kopie CRC B3580747
Track ist nicht enthalten in der AccurateRip Datenbank
Kopie OK

Track 13

Dateiname V:\INCOMING\LOSSLESS\ZZZ-EAC\13 Die Mächtigen.wav

Spitzenpegel 96.9 %
Track Qualität 100.0 %
Test CRC 7AC092AC
Kopie CRC 7AC092AC
Track ist nicht enthalten in der AccurateRip Datenbank
Kopie OK

Track 14

Dateiname V:\INCOMING\LOSSLESS\ZZZ-EAC\14 Solange Die UDSSR….wav

Spitzenpegel 99.2 %
Track Qualität 100.0 %
Test CRC 5308AFA5
Kopie CRC 5308AFA5
Track ist nicht enthalten in der AccurateRip Datenbank
Kopie OK

Track 15

Dateiname V:\INCOMING\LOSSLESS\ZZZ-EAC\15 Wenn Der Senator Erzählt.wav

Spitzenpegel 99.9 %
Track Qualität 100.0 %
Test CRC 7F8AD0F7
Kopie CRC 7F8AD0F7
Track ist nicht enthalten in der AccurateRip Datenbank
Kopie OK

Track 16

Dateiname V:\INCOMING\LOSSLESS\ZZZ-EAC\16 Und Das Deutsche Volk Pflegt Sich.wav

Spitzenpegel 99.9 %
Track Qualität 100.0 %
Test CRC E6A1ADDC
Kopie CRC E6A1ADDC
Track ist nicht enthalten in der AccurateRip Datenbank
Kopie OK


Keiner der Tracks ist in der AccurateRip Datenbank vorhanden

Keine Fehler aufgetreten

Ende des Statusreports


CD Info:

Hanns Dieter Hüsch And Franz Josef Degenhardt And Wolfgang Neuss And Dieter Süverkrüp - Quartett ´67

Label: Conträr
Catalog#: 4304-2
Format: 2 x CD, Album
Country: Germany
Released: 1996
Recorded: 1967
Genre: Folk, World, & Country
Style: Folk
Notes: Eine Aufnahme des Saarländischen Rundfunk

A Recording by the Saarländischen Rundfunk


Tracklisting:
101 Für Wen Wir Singen
102 Seele Der Apartheid
103 An Alle Leichtfertig Gutgläubigen SPD-Wähler
104 So Sind Hier Die Leute
105 Minnelied ´68
106 EWG (England Will Geiner)
107 Das Leben - Ein Supermarkt
108 Notar Bolamus
109 Deutsche Zunge
110 Verkürzte Darstellung Eines Neuerlichen Deutschland-Erwachens
111 Ich Bin Ein Deutscher Lästerer
112 Wanderlied ´68
113 Da Bin Ich
201 Traum Von Der Solidarität
202 Erschröckliche Moritat Vom Kryptokommunisten
203 Kirschen Auf Sahne
204 Hier Sind Die Deutschen Rundfunksender
205 Horsti Schmandhoff
206 Der Lachenden Mann Aus Dem Kongo
207 Viele Sagen…
208 Wirtschaftsbericht Bei Der Nirgendwo AG Im Nirgendwoland
209 Hexenverbrennung Nach Einem Alten Holzschnitt
210 Rein Technisches
211 Partisanenbekämpfung
212 Westernballade
213 Die Mächtigen
214 Solange Die UDSSR…
215 Wenn Der Senator Erzählt
216 Und Das Deutsche Volk Pflegt Sich

Band Info:

-

Format:

Flac (Compression Level 8)

Links:

[rapidshare.com/200 MB Splits]

via secured.in

http://secured.in/download-324189-296f61ea.html

via stealth.to
incl. .dlc, .ccf, .rsdf

http://stealth.to/?id=2p4y8zbs7yosgc4g5hzfts6v55ca88xyor


Password:

finest-hq-audio



MIRRORS ARE WELCOME BUT NOT ON RAPIDSHARE! Thanks.

If you have problems getting the links from the encrypters, please check if a pop-up is blocked or java is disabled. Both must be allowed!

If you have still problems after that, please write me a message - also if something happens to be down. Thanks.



––> I SUGGEST TO ALL WHO HAVE PROBLEMS USING SECURED.IN or want to download automated with the rsdf (AND ALL OTHERS TOO…) <––
––> TO USE THE FREE DOWNLOAD MANAGER "JDOWNLOADER" <––
––> (DOWNLOAD HERE: http://jdownloader.org/news?lng=en) <––
––> THIS ONE CAN ALSO HANDLE THE RSDF FILE AND DECRYPTS LINK ENCRYPTER PAGES AUTOMATICALLY! <––
––> BELIEVE IN ME, IT WILL MAKE RAPIDSHARE MUCH EASIER! <––