Subcategories

Queen - Bohemian Rhapsody (The Original Soundtrack) (2018)

Posted By: Domestos
Queen - Bohemian Rhapsody (The Original Soundtrack) (2018)

Queen - Bohemian Rhapsody (The Original Soundtrack) (2018)
EAC Rip | FLAC (tracks+.cue, log) ~ 522.88 Mb + 23.26 Mb (Scans) | 01:19:58
Soundtrack | Label: Universal International Music - 0602567988700

The soundtrack to the Queen biopic will please both casuals and obsessives. For the former, lots of hits: “Crazy Little Thing Called Love,” “Under Pressure,” and, of course, the grandiose title track among them. And for the latter, Queen struts out rare live tracks and fresh updates to classics. “We Will Rock You” merges a studio and live performance, “Don’t Stop Me Now” features newly recorded guitar parts from Brian May. The surviving members of Queen also recorded their very own arrangement of the famous 20th Century Fox theme. But the biggest jewel in the crown is the addition of five songs from the band’s dramatic 1985 Live Aid performance—a faithful re-creation of which serves as the movie's climax—now available for the first time. Ayyy-oh!



Track List:
01 - 20th Century Fox Fanfare (00:00:26)
02 - Somebody To Love (00:04:56)
03 - Doing All Right… Revisited (00:03:17)
04 - Keep Yourself Alive (Live At The Rainbow) (00:03:56)
05 - Killer Queen (00:02:59)
06 - Fat Bottomed Girls (Live In Paris) (00:04:38)
07 - Bohemian Rhapsody (00:05:55)
08 - Now I'm Here (Live At Hammersmith Odeon) (00:04:26)
09 - Crazy Little Thing Called Love (00:02:43)
10 - Love of My Life (Rock In Rio) (00:04:29)
11 - We Will Rock You (Movie Mix) (00:02:09)
12 - Another One Bites the Dust (00:03:35)
13 - I Want To Break Free (00:03:43)
14 - Under Pressure (feat. David Bowie) (00:04:04)
15 - Who Wants To Live Forever (00:05:14)
16 - Bohemian Rhapsody (Live Aid) (00:02:28)
17 - Radio Ga Ga (Live Aid) (00:04:06)
18 - Ay-Oh (Live Aid) (00:00:41)
19 - Hammer To Fall (Live Aid) (00:04:04)
20 - We Are the Champions (Live Aid) (00:03:57)
21 - Don't Stop Me Now… Revisited (00:03:38)
22 - The Show Must Go On (00:04:34)

Queen - Bohemian Rhapsody (The Original Soundtrack) (2018)

Exact Audio Copy V1.3 from 2. September 2016

EAC extraction logfile from 19. October 2018, 21:52

Queen / Bohemian Rhapsody (The Original Soundtrack)

Used drive : PLEXTOR PX-891SAF PLUS Adapter: 1 ID: 0

Read mode : Secure
Utilize accurate stream : Yes
Defeat audio cache : Yes
Make use of C2 pointers : No

Read offset correction : 6
Overread into Lead-In and Lead-Out : No
Fill up missing offset samples with silence : Yes
Delete leading and trailing silent blocks : No
Null samples used in CRC calculations : Yes
Used interface : Native Win32 interface for Win NT & 2000
Gap handling : Appended to previous track

Used output format : User Defined Encoder
Selected bitrate : 1024 kBit/s
Quality : High
Add ID3 tag : No
Command line compressor : C:\Program Files (x86)\Exact Audio Copy\Flac\flac.exe
Additional command line options : -0 -V -T "ARTIST=%artist%" -T "TITLE=%title%" -T "ALBUM=%albumtitle%" -T "DATE=%year%" -T "TRACKNUMBER=%tracknr%" -T "TOTALTRACKS=%numtracks%" -T "GENRE=%genre%" -T "COMMENT=Naftamusic Release!" %source%


TOC of the extracted CD

Track | Start | Length | Start sector | End sector
––––––––––––––––––––––––––––-
1 | 0:00.00 | 0:26.01 | 0 | 1950
2 | 0:26.01 | 4:55.55 | 1951 | 24130
3 | 5:21.56 | 3:16.65 | 24131 | 38895
4 | 8:38.46 | 3:56.17 | 38896 | 56612
5 | 12:34.63 | 2:59.14 | 56613 | 70051
6 | 15:34.02 | 4:37.60 | 70052 | 90886
7 | 20:11.62 | 5:54.64 | 90887 | 117500
8 | 26:06.51 | 4:25.74 | 117501 | 137449
9 | 30:32.50 | 2:43.26 | 137450 | 149700
10 | 33:16.01 | 4:28.52 | 149701 | 169852
11 | 37:44.53 | 2:09.07 | 169853 | 179534
12 | 39:53.60 | 3:34.48 | 179535 | 195632
13 | 43:28.33 | 3:43.06 | 195633 | 212363
14 | 47:11.39 | 4:04.36 | 212364 | 230699
15 | 51:16.00 | 5:14.37 | 230700 | 254286
16 | 56:30.37 | 2:27.63 | 254287 | 265374
17 | 58:58.25 | 4:05.51 | 265375 | 283800
18 | 63:04.01 | 0:41.35 | 283801 | 286910
19 | 63:45.36 | 4:03.39 | 286911 | 305174
20 | 67:49.00 | 3:57.16 | 305175 | 322965
21 | 71:46.16 | 3:37.55 | 322966 | 339295
22 | 75:23.71 | 4:33.52 | 339296 | 359822


Track 1

Filename E:\Nafta Releases\Queen - Bohemian Rhapsody (The Original Soundtrack 2018)[FLAC] - Naftamusic\01 - 20th Century Fox Fanfare.wav

Pre-gap length 0:00:02.00

Peak level 99.7 %
Extraction speed 1.4 X
Track quality 100.0 %
Test CRC 433A6339
Copy CRC 433A6339
Track not present in AccurateRip database
Copy OK

Track 2

Filename E:\Nafta Releases\Queen - Bohemian Rhapsody (The Original Soundtrack 2018)[FLAC] - Naftamusic\02 - Somebody To Love.wav

Peak level 99.1 %
Extraction speed 3.1 X
Track quality 100.0 %
Test CRC 6B2339D0
Copy CRC 6B2339D0
Track not present in AccurateRip database
Copy OK

Track 3

Filename E:\Nafta Releases\Queen - Bohemian Rhapsody (The Original Soundtrack 2018)[FLAC] - Naftamusic\03 - Doing All Right… Revisited.wav

Peak level 99.6 %
Extraction speed 2.5 X
Track quality 99.9 %
Test CRC 5D8CA02F
Copy CRC 5D8CA02F
Track not present in AccurateRip database
Copy OK

Track 4

Filename E:\Nafta Releases\Queen - Bohemian Rhapsody (The Original Soundtrack 2018)[FLAC] - Naftamusic\04 - Keep Yourself Alive (Live At The Rainbow).wav

Peak level 100.0 %
Extraction speed 3.5 X
Track quality 100.0 %
Test CRC A0C64C08
Copy CRC A0C64C08
Track not present in AccurateRip database
Copy OK

Track 5

Filename E:\Nafta Releases\Queen - Bohemian Rhapsody (The Original Soundtrack 2018)[FLAC] - Naftamusic\05 - Killer Queen.wav

Peak level 93.9 %
Extraction speed 3.6 X
Track quality 100.0 %
Test CRC 19B21774
Copy CRC 19B21774
Track not present in AccurateRip database
Copy OK

Track 6

Filename E:\Nafta Releases\Queen - Bohemian Rhapsody (The Original Soundtrack 2018)[FLAC] - Naftamusic\06 - Fat Bottomed Girls (Live In Paris).wav

Peak level 100.0 %
Extraction speed 4.0 X
Track quality 100.0 %
Test CRC 44A1C176
Copy CRC 44A1C176
Track not present in AccurateRip database
Copy OK

Track 7

Filename E:\Nafta Releases\Queen - Bohemian Rhapsody (The Original Soundtrack 2018)[FLAC] - Naftamusic\07 - Bohemian Rhapsody.wav

Peak level 98.9 %
Extraction speed 4.4 X
Track quality 100.0 %
Test CRC E2AA5CAB
Copy CRC E2AA5CAB
Track not present in AccurateRip database
Copy OK

Track 8

Filename E:\Nafta Releases\Queen - Bohemian Rhapsody (The Original Soundtrack 2018)[FLAC] - Naftamusic\08 - Now I'm Here (Live At Hammersmith Odeon).wav

Peak level 99.0 %
Extraction speed 4.5 X
Track quality 100.0 %
Test CRC A0E61456
Copy CRC A0E61456
Track not present in AccurateRip database
Copy OK

Track 9

Filename E:\Nafta Releases\Queen - Bohemian Rhapsody (The Original Soundtrack 2018)[FLAC] - Naftamusic\09 - Crazy Little Thing Called Love.wav

Peak level 100.0 %
Extraction speed 3.2 X
Track quality 99.9 %
Test CRC 9281D911
Copy CRC 9281D911
Track not present in AccurateRip database
Copy OK

Track 10

Filename E:\Nafta Releases\Queen - Bohemian Rhapsody (The Original Soundtrack 2018)[FLAC] - Naftamusic\10 - Love of My Life (Rock In Rio).wav

Peak level 98.8 %
Extraction speed 4.8 X
Track quality 100.0 %
Test CRC 8D7A591D
Copy CRC 8D7A591D
Track not present in AccurateRip database
Copy OK

Track 11

Filename E:\Nafta Releases\Queen - Bohemian Rhapsody (The Original Soundtrack 2018)[FLAC] - Naftamusic\11 - We Will Rock You (Movie Mix).wav

Peak level 100.0 %
Extraction speed 4.4 X
Track quality 100.0 %
Test CRC C5C9D62D
Copy CRC C5C9D62D
Track not present in AccurateRip database
Copy OK

Track 12

Filename E:\Nafta Releases\Queen - Bohemian Rhapsody (The Original Soundtrack 2018)[FLAC] - Naftamusic\12 - Another One Bites the Dust.wav

Peak level 100.0 %
Extraction speed 4.9 X
Track quality 100.0 %
Test CRC 74CC0B7B
Copy CRC 74CC0B7B
Track not present in AccurateRip database
Copy OK

Track 13

Filename E:\Nafta Releases\Queen - Bohemian Rhapsody (The Original Soundtrack 2018)[FLAC] - Naftamusic\13 - I Want To Break Free.wav

Peak level 100.0 %
Extraction speed 3.9 X
Track quality 99.9 %
Test CRC 4540E825
Copy CRC 4540E825
Track not present in AccurateRip database
Copy OK

Track 14

Filename E:\Nafta Releases\Queen - Bohemian Rhapsody (The Original Soundtrack 2018)[FLAC] - Naftamusic\14 - Under Pressure (feat. David Bowie).wav

Peak level 100.0 %
Extraction speed 5.3 X
Track quality 100.0 %
Test CRC 6010F507
Copy CRC 6010F507
Track not present in AccurateRip database
Copy OK

Track 15

Filename E:\Nafta Releases\Queen - Bohemian Rhapsody (The Original Soundtrack 2018)[FLAC] - Naftamusic\15 - Who Wants To Live Forever.wav

Peak level 100.0 %
Extraction speed 5.6 X
Track quality 100.0 %
Test CRC ADDD505F
Copy CRC ADDD505F
Track not present in AccurateRip database
Copy OK

Track 16

Filename E:\Nafta Releases\Queen - Bohemian Rhapsody (The Original Soundtrack 2018)[FLAC] - Naftamusic\16 - Bohemian Rhapsody (Live Aid).wav

Peak level 99.0 %
Extraction speed 5.1 X
Track quality 100.0 %
Test CRC 1EA7E043
Copy CRC 1EA7E043
Track not present in AccurateRip database
Copy OK

Track 17

Filename E:\Nafta Releases\Queen - Bohemian Rhapsody (The Original Soundtrack 2018)[FLAC] - Naftamusic\17 - Radio Ga Ga (Live Aid).wav

Peak level 99.0 %
Extraction speed 4.5 X
Track quality 99.9 %
Test CRC 21A52483
Copy CRC 21A52483
Track not present in AccurateRip database
Copy OK

Track 18

Filename E:\Nafta Releases\Queen - Bohemian Rhapsody (The Original Soundtrack 2018)[FLAC] - Naftamusic\18 - Ay-Oh (Live Aid).wav

Peak level 98.6 %
Extraction speed 1.7 X
Track quality 99.7 %
Test CRC 31382481
Copy CRC 31382481
Track not present in AccurateRip database
Copy OK

Track 19

Filename E:\Nafta Releases\Queen - Bohemian Rhapsody (The Original Soundtrack 2018)[FLAC] - Naftamusic\19 - Hammer To Fall (Live Aid).wav

Peak level 99.0 %
Extraction speed 5.8 X
Track quality 100.0 %
Test CRC D2C714B7
Copy CRC D2C714B7
Track not present in AccurateRip database
Copy OK

Track 20

Filename E:\Nafta Releases\Queen - Bohemian Rhapsody (The Original Soundtrack 2018)[FLAC] - Naftamusic\20 - We Are the Champions (Live Aid).wav

Peak level 99.0 %
Extraction speed 5.8 X
Track quality 100.0 %
Test CRC 889B5D62
Copy CRC 889B5D62
Track not present in AccurateRip database
Copy OK

Track 21

Filename E:\Nafta Releases\Queen - Bohemian Rhapsody (The Original Soundtrack 2018)[FLAC] - Naftamusic\21 - Don't Stop Me Now… Revisited.wav

Peak level 99.2 %
Extraction speed 6.0 X
Track quality 100.0 %
Test CRC C7DE459E
Copy CRC C7DE459E
Track not present in AccurateRip database
Copy OK

Track 22

Filename E:\Nafta Releases\Queen - Bohemian Rhapsody (The Original Soundtrack 2018)[FLAC] - Naftamusic\22 - The Show Must Go On.wav

Peak level 100.0 %
Extraction speed 6.3 X
Track quality 100.0 %
Test CRC 44BBB0B4
Copy CRC 44BBB0B4
Track not present in AccurateRip database
Copy OK


None of the tracks are present in the AccurateRip database

No errors occurred

End of status report

==== Log checksum B12A2F3303903100AB1DA7448F97F96257846CBFB423D70A5D1B8D4AF5A650C9 ====

All thanks go to the Naftamusic

More Music in My Blog
Follow My RSS Channel